.
Авторизация | Регистрация
Хочешь лучшие торренты? Добавь свой email!
Добавить

Торрент скачать бесплатно

  • support: webmaster@btracker.club
» » Зелёная книга / Green Book (2018) DVDScr [MVO] [AD] торрент скачать бесплатно


    Зелёная книга / Green Book (2018) DVDScr [MVO] [AD] торрент скачать бесплатно

    Опубликовал: MoulinRougeLido | Дата: 14-01-2019, 10:10 | .torrent скачали: 2

    Зелёная книга / Green Book (2018) DVDScr [MVO] [AD]Производство: США/Participant Media, DreamWorks, Amblin Partners
    Жанр: Драма, комедия, биография
    Режиссер: Питер Фаррелли

    Актеры
    Вигго Мортенсен, Махершала Али, Линда Карделлини, Себастьян Манискалко, Димитар Маринов, Майк Хаттон, П.Дж. Бирн, Джозеф Кортезе, Мэгги Никсон, Фон Льюис

    Описание

    Утонченный светский лев, богатый и талантливый музыкант нанимает в качестве водителя и телохранителя человека, который менее всего подходит для этой работы. Тони Болтун — вышибала, не умеющий держать рот на замке и пользоваться столовыми приборами, зато он хорошо работает кулаками. Это турне навсегда изменит жизнь обоих.
    Основано на реальных событиях.

    Рейтинг MPAA: PG-13 (детям до 13 лет просмотр нежелателен)
    Дата мировой премьеры: 11 сентября 2018
    Дата премьеры в России: 24 января 2019

    Релиз от: NNMClub
    Продолжительность: 02: 09: 34
    Качество видео: DVDScr
    Перевод: Многоголосый закадровый, любительский (MUZOBOZ)
    Субтитры: Отсутствуют
    Реклама: Присутствуют вставки текстовой рекламы
    Видео: XviD, 720x368, ~1738 Kbps
    Аудио: AC-3, 2 ch, 448 Kbps

    Общее
    Полное имя : E: NNMЗелёная книгаZelenaya kniga 2018 DVDScr.avi
    Формат : AVI
    Формат/Информация : Audio Video Interleave
    Профиль формата : OpenDML
    Размер файла : 1, 99 Гбайт
    Продолжительность : 2 ч. 9 м.
    Общий поток : 2196 Кбит/сек
    Видео
    Идентификатор : 0
    Формат : MPEG-4 Visual
    Профиль формата : Advanced Simple@L5
    Настройки формата : BVOP2
    Параметр BVOP формата : 2
    Параметр QPel формата : Нет
    Параметр GMC формата : Без точки перехода
    Параметр матрицы формата : Default (MPEG)
    Идентификатор кодека : XVID
    Идентификатор кодека/Подсказка : XviD
    Продолжительность : 2 ч. 9 м.
    Битрейт : 1738 Кбит/сек
    Ширина : 720 пикселей
    Высота : 368 пикселей
    Соотношение сторон : 1, 957
    Частота кадров : 23, 976 (24000/1001) кадра/сек
    Цветовое пространство : YUV
    Субдискретизация насыщенности : 4: 2: 0
    Битовая глубина : 8 бит
    Тип развёртки : Прогрессивная
    Метод сжатия : С потерями
    Бит/(Пиксели*Кадры) : 0.274
    Размер потока : 1, 57 Гбайт (79%)
    Библиотека кодирования : XviD 1.2.1 (UTC 2008-12-04)
    Аудио
    Идентификатор : 1
    Формат : AC-3
    Формат/Информация : Audio Coding 3
    Идентификатор кодека : 2000
    Продолжительность : 2 ч. 9 м.
    Вид битрейта : Постоянный
    Битрейт : 448 Кбит/сек
    Каналы : 2 канала
    Расположение каналов : Front: L R
    Частота : 48, 0 КГц
    Частота кадров : 31, 250 кадров/сек (1536 SPF)
    Битовая глубина : 16 бит
    Метод сжатия : С потерями
    Размер потока : 415 Мбайт (20%)
    Выравнивание : Соединение по промежуткам
    Продолжительность промежутка : 32 мс. (0, 77 видеокадр)
    ServiceKind/String : Complete Main

    Скриншоты для ознакомления



    Все одноименные релизы в Клубе Время раздачи: 24/7 (до появления первых 3-5 скачавших)


    Онлайн видео Зелёная книга



    Зелёная книга/Green Book (2018) DVDScr [MVO] [AD]
    Рейтинг →
     (голосов: 1, оценка 4/5, голосовать можно 1 раз )

    Другие торренты по теме:

  • Зелёная книга / Green Book (2018) DVDScr [MVO]


    • Комментарии (0):

      Информация

      Информация

        Посетители, находящиеся в группе Гости, не могут оставлять комментарии в данной новости.

        ↓ Меню




        ↓ Опрос

        Вы добавили сайт в закладки?
        Да
        Нет


        Top 10 за месяц (Фильмы)