.
Авторизация | Регистрация

Торрент скачать бесплатно

  • support: webmaster@btracker.club
» » Последние дни / Latter Days (2003) WEB-DLRip [H.264 / 720p-LQ] [PR] торрент скачать бесплатно


    Последние дни / Latter Days (2003) WEB-DLRip [H.264 / 720p-LQ] [PR] торрент скачать бесплатно

    Дата: 1-01-2019, 05:00 | .torrent скачали: 0

    Последние дни / Latter Days (2003) WEB-DLRip [H.264 / 720p-LQ] [PR]Производство: США, TLA Releasing, GP Pictures here! Films
    Жанр: Драма, Комедия
    Режиссер: С. Джей Кокс

    Актеры
    Стив Сандвосс, Уэс Рэмси, Джозеф Гордон-Левитт, Ребека Джонсон, Эмбер Бенсон, Хари Пэйтон, Жаклин Биссет, Роб МакЭлхенни, Дэйв Пауэр, Эрик Палладино

    Описание

    Кристиан — легкомысленный парень живущий сегодняшним днём, случайно узнаёт, что его соседями отныне будет компания молодых проповедников-мормонов. Заключив с приятелями пари, что соблазнит одного из них, Кристиан неожиданно для себя всерьёз увлекается молодым человеком по имени Аарон. Пытаясь разобраться в своих чувствах, Кристиан становится волонтёром по уходу за неизлечимыми больными. Интрижка перерастает в настоящую любовь, но друзья-проповедники сообщают обо всём отцу Аарона. Тот срочно отзывает сына домой, проклинает его и отлучает от церкви.

    Возраст: 18+ (зрителям, достигшим 18 лет. запрещено для детей)
    Рейтинг MPAA: R (лицам до 17 лет обязательно присутствие взрослого)
    Продолжительность: 01: 47: 54
    Качество видео: WEB-DLRip
    Перевод: Многоголосый закадровый
    Субтитры: отсутствуют
    Видео: AVC/H.264, 1280x720, ~2300 Kbps
    Аудио: AC3, 2 ch, 448 Kbps

    General
    Unique ID : 136111842082800179821244263307637742517 (0x66662FEF4ECB9F7AD0B5341790FCDBB5)
    Complete name : D: Latter Days (2003)Latter Days (2003).mkv
    Format : Matroska
    Format version : Version 4/Version 2
    File size : 2.07 GiB
    Duration : 1h 47mn
    Overall bit rate : 2 749 Kbps
    Encoded date : UTC 2018-08-11T03: 44: 48Z
    Writing application : HandBrake 1.0.3 2017022500
    Writing library : Lavf57.7.2
    Video
    ID : 1
    Format : AVC
    Format/Info : Advanced Video Codec
    Format profile : Main@L4.0
    Format settings, CABAC : Yes
    Format settings, ReFrames : 4 frames
    Codec ID : V_MPEG4/ISO/AVC
    Duration : 1h 47mn
    Bit rate : 2 300 Kbps
    Width : 1 280 pixels
    Height : 720 pixels
    Display aspect ratio : 16: 9
    Frame rate mode : Constant
    Frame rate : 23.976 fps
    Color space : YUV
    Chroma subsampling : 4: 2: 0
    Bit depth : 8 bits
    Scan type : Progressive
    Bits/(Pixel*Frame) : 0.104
    Stream size : 1.69 GiB (82%)
    Writing library : x264 core 148 r2708 86b7198
    Encoding settings : cabac=1/ref=2/deblock=1: 0: 0/analyse=0x1: 0x111/me=hex/subme=6/psy=1/psy_rd=1.00: 0.00/mixed_ref=1/me_range=16/chroma_me=1/trellis=1/8x8dct=0/cqm=0/deadzone=21, 11/fast_pskip=1/chroma_qp_offset=-2/threads=3/lookahead_threads=1/sliced_threads=0/nr=0/decimate=1/interlaced=0/bluray_compat=0/constrained_intra=0/bframes=3/b_pyramid=2/b_adapt=1/b_bias=0/direct=1/weightb=1/open_gop=0/weightp=1/keyint=240/keyint_min=24/scenecut=40/intra_refresh=0/rc_lookahead=30/rc=2pass/mbtree=1/bitrate=2300/ratetol=1.0/qcomp=0.60/qpmin=0/qpmax=69/qpstep=4/cplxblur=20.0/qblur=0.5/vbv_maxrate=20000/vbv_bufsize=25000/nal_hrd=none/filler=0/ip_ratio=1.40/aq=1: 1.00
    Default : Yes
    Forced : No
    Color primaries : BT.709
    Transfer characteristics : BT.709
    Matrix coefficients : BT.709
    Audio
    ID : 2
    Format : AC-3
    Format/Info : Audio Coding 3
    Mode extension : CM (complete main)
    Format settings, Endianness : Big
    Codec ID : A_AC3
    Duration : 1h 47mn
    Bit rate mode : Constant
    Bit rate : 448 Kbps
    Channel(s) : 2 channels
    Channel positions : Front: L R
    Sampling rate : 44.1 KHz
    Bit depth : 16 bits
    Compression mode : Lossy
    Stream size : 346 MiB (16%)
    Title : Stereo
    Language : Russian
    Default : Yes
    Forced : No
    Menu
    00: 00: 00.000 : : 00: 00: 00.000
    00: 08: 08.321 : : 00: 08: 08.321
    00: 18: 02.081 : : 00: 18: 01.956
    00: 24: 43.899 : : 00: 24: 43.816
    00: 31: 39.564 : : 00: 31: 39.523
    00: 43: 19.430 : : 00: 43: 19.388
    00: 49: 40.603 : : 00: 49: 40.561
    00: 53: 44.722 : : 00: 53: 44.680
    01: 06: 18.349 : : 01: 06: 16.472
    01: 15: 18.347 : : 01: 15: 18.264
    01: 24: 38.156 : : 01: 24: 37.990
    01: 36: 09.722 : : 01: 36: 09.639
    В США некоторые религиозные группы призывали прекратить показ картины в кинотеатрах и запретить её распространение на DVD. Фильм обладатель Приза зрительских симпатий более десяти международных фестивалей нетрадиционного кино.

    Скриншоты для ознакомления





    Все одноименные релизы в Клубе
    Время раздачи: 24/7 (до появления первых 3-5 скачавших)


    Онлайн видео Последние дни



    Последние дни/Latter Days (2003) WEB-DLRip [H.264/720p-LQ] [PR]
    Рейтинг →
     (голосов: 1, оценка 4/5, голосовать можно 1 раз )

    Другие торренты по теме:

  • Последние дни во Вьетнаме / Последние дни во Вьетнаме (2014) IPTVRip скачать через торрент бесплатно
  • Последние дни знаменитостей: Последние дни Джеймса Дина / Final Days of an Icon: Final Days of James Dean (2007) SATRip скачать через торрент бесплатно
  • VA - Последние новинки клубной музыки (Sound Clinic - Special Edition) (2014) [MP3|320 кб / с]<House, Breaks, Drum n Bass, Dubstep, Trance, Techno>
  • П.Т.В.П. (Последние Танки В Париже) - Ключи от всех дверей (2014) [MP3|320 кб / с]<Punk Rock / Post-Punk>
  • Последние герои высадки в Нормандии / D-Day The Last Heroes (2013) HDTVRip [2 серии из 2] [H.264 / 720p-LQ] скачать через торрент бесплатно
  • Последние часы / These Final Hours (2013) HDRip [EN]
  • Последние часы / These Final Hours (2013) HDRip [EN]
  • Последние часы / These Final Hours (2013) BDRip [H.264 / 720р-LQ][VO] скачать через торрент бесплатно


    • Комментарии (0):

      Информация

      Информация

        Посетители, находящиеся в группе Гости, не могут оставлять комментарии в данной новости.

        ↓ Меню




        ↓ Опрос

        Вы добавили сайт в закладки?
        Да
        Нет


        Top 10 за месяц (Фильмы)