.
Авторизация | Регистрация
Хочешь лучшие торренты? Добавь свой email!
Добавить

Торрент скачать бесплатно

  • support: webmaster@btracker.club
» » Большая прогулка / La Grande vadrouille (1966) BDRip [H.264 / 1080p] [Remastered] торрент скачать бесплатно


    Большая прогулка / La Grande vadrouille (1966) BDRip [H.264 / 1080p] [Remastered] торрент скачать бесплатно

    Опубликовал: fregat | Дата: 1-01-2019, 05:00 | .torrent скачали: 0

    Большая прогулка / La Grande vadrouille (1966) BDRip [H.264 / 1080p] [Remastered]Производство: Франция, Великобритания, Les Films Corona, The Rank Organisation Film Productions Ltd.
    Жанр: Комедия, Военный
    Режиссер: Жерар Ури

    Актеры
    Бурвиль, Луи де Фюнес, Клаудио Брук, Андреа Паризи, Колетт Броссе, Майк Маршалл, Мари Марке, Пьер Бертен, Бенно Штерценбах, Мари Дюбуа, Терри-Томас, Зигхардт Рупп, Райнхард Колльдехофф, Хельмут Шнайдер, Поль Пребуа, Ганс Мейер, Ги Гроссо, Мишель Модо, Питер Джейкоб, Руди Ленуар, Пьер Руссель, Пьер Бастьен, Жак Саблон, Маг-Авриль, Габриэль Гобен, Генри Женес, Жорж Атлас

    Описание

    Небо над Парижем, 1942 год. Английский бомбардировщик, выполняющий важное задание, подбит немцами. Летчики покидают горящую машину, договариваясь встретиться через некоторое время в турецких банях. Один из них приземляется на крышу дома, где работает парижский маляр Огюстен Буве. Другой падает на крышу Гранд-Опера и прячется вместе с парашютом в апартаментах главного дирижера Станисласа Лефора. А командир экипажа, сэр Реджинальд, приводняется в зоопарке - в пруд с бегемотами. И, как только англичане попадают в Париж, начинаются совершенно невероятные, а точнее - невероятно смешные приключения. И если сначала английское трио никак не может добраться до турецких бань, то в итоге им приходится всеми правдами и неправдами прорываться с помощью французов к швейцарской границе...

    Возраст: 6+ (зрителям, достигшим 6 лет)
    Рейтинг MPAA: G (нет возрастных ограничений)
    Релиз от: V_ad, HDReactor
    Продолжительность: 02: 04: 17
    Качество видео: BDRip
    Перевод: Дублированный, многоголосый закадровый
    Субтитры: Русские, английские
    Видео: AVC/H.264, 1920х768, ~16.4 Мbps
    Аудио 1: AC3, 2 ch, 192 kbps | советский дубляж (киностудия Союзмультфильм)
    Аудио 2: AC3, 4 ch, 448 kbps | русский MVO (RUSCICO)
    Аудио 3: AC3, 2 ch, 192 kbps | русский MVO (Петербург 5-й канал)
    Аудио 4: AC3, 6 ch, 448 kbps | украинский MVO (ТО Цікава ідея)
    Аудио 5: AC3, 2 ch, 192 kbps | французский

    Полное имя : J: La.Grande.Vadrouille.1966.BDRip.1080p.50th.Anniversary.HDReactor.mkv
    Формат : Matroska
    Версия формата : Version 2
    Размер файла : 15, 5 Гбайт
    Продолжительность : 2 ч. 4 м.
    Общий поток : 17, 9 Мбит/сек
    Название фильма : ~V ad~
    Дата кодирования : UTC 2018-12-31 02: 59: 18
    Программа кодирования : mkvmerge v6.5.0 (\'Isn\'t she lovely\') built on Oct 20 2013 12: 50: 05
    Библиотека кодирования : libebml v1.3.0 + libmatroska v1.4.1
    Обложка : Yes
    Attachments : cover.jpg
    Видео
    Идентификатор : 1
    Формат : AVC
    Формат/Информация : Advanced Video Codec
    Профиль формата : High@L4.1
    Настройки формата : CABAC/5 Ref Frames
    Параметр CABAC формата : Да
    Параметр RefFrames формата : 5 кадров
    Идентификатор кодека : V_MPEG4/ISO/AVC
    Продолжительность : 2 ч. 4 м.
    Битрейт : 16, 4 Мбит/сек
    Ширина : 1920 пикселей
    Высота : 768 пикселей
    Соотношение сторон : 2, 500
    Режим частоты кадров : Постоянный
    Частота кадров : 24, 000 кадра/сек
    Цветовое пространство : YUV
    Субдискретизация насыщенности : 4: 2: 0
    Битовая глубина : 8 бит
    Тип развёртки : Прогрессивная
    Бит/(Пиксели*Кадры) : 0.464
    Размер потока : 13, 9 Гбайт (90%)
    Заголовок : ~V~
    Библиотека кодирования : x264 core 157 r2935 545de2f
    Настройки программы : cabac=1/ref=5/deblock=1: -3: -3/analyse=0x3: 0x133/me=umh/subme=11/psy=1/psy_rd=1.00: 0.00/mixed_ref=1/me_range=40/chroma_me=1/trellis=2/8x8dct=1/cqm=0/deadzone=21, 11/fast_pskip=0/chroma_qp_offset=-2/threads=12/lookahead_threads=1/sliced_threads=0/nr=0/decimate=0/interlaced=0/bluray_compat=0/constrained_intra=0/bframes=10/b_pyramid=2/b_adapt=2/b_bias=0/direct=3/weightb=1/open_gop=0/weightp=2/keyint=240/keyint_min=24/scenecut=40/intra_refresh=0/rc=2pass/mbtree=0/bitrate=16408/ratetol=1.0/qcomp=0.76/qpmin=0/qpmax=69/qpstep=4/cplxblur=20.0/qblur=0.5/ip_ratio=1.32/pb_ratio=1.30/aq=3: 0.90
    Язык : Английский
    Default : Да
    Forced : Нет
    Аудио #1
    Идентификатор : 2
    Формат : AC-3
    Формат/Информация : Audio Coding 3
    Коммерческое название : Dolby Digital
    Идентификатор кодека : A_AC3
    Продолжительность : 2 ч. 4 м.
    Вид битрейта : Постоянный
    Битрейт : 192 Кбит/сек
    Каналы : 2 канала
    Channel layout : L R
    Частота : 48, 0 КГц
    Частота кадров : 31, 250 кадров/сек (1536 SPF)
    Битовая глубина : 16 бит
    Метод сжатия : С потерями
    Размер потока : 171 Мбайт (1%)
    Заголовок : DUB Союзмультфильм
    Язык : Русский
    Service Kind : Complete Main
    Default : Да
    Forced : Да
    Аудио #2
    Идентификатор : 3
    Формат : AC-3
    Формат/Информация : Audio Coding 3
    Коммерческое название : Dolby Digital
    Идентификатор кодека : A_AC3
    Продолжительность : 2 ч. 4 м.
    Вид битрейта : Постоянный
    Битрейт : 448 Кбит/сек
    Каналы : 6 каналов
    Channel layout : L R C LFE Ls Rs
    Частота : 48, 0 КГц
    Частота кадров : 31, 250 кадров/сек (1536 SPF)
    Битовая глубина : 16 бит
    Метод сжатия : С потерями
    Размер потока : 398 Мбайт (3%)
    Заголовок : MVO RUSCICO
    Язык : Русский
    Service Kind : Complete Main
    Default : Нет
    Forced : Нет
    Аудио #3
    Идентификатор : 4
    Формат : AC-3
    Формат/Информация : Audio Coding 3
    Коммерческое название : Dolby Digital
    Идентификатор кодека : A_AC3
    Продолжительность : 2 ч. 4 м.
    Вид битрейта : Постоянный
    Битрейт : 192 Кбит/сек
    Каналы : 2 канала
    Channel layout : L R
    Частота : 48, 0 КГц
    Частота кадров : 31, 250 кадров/сек (1536 SPF)
    Битовая глубина : 16 бит
    Метод сжатия : С потерями
    Размер потока : 171 Мбайт (1%)
    Заголовок : MVO 5 канал
    Язык : Русский
    Service Kind : Complete Main
    Default : Нет
    Forced : Нет
    Аудио #4
    Идентификатор : 5
    Формат : AC-3
    Формат/Информация : Audio Coding 3
    Коммерческое название : Dolby Digital
    Идентификатор кодека : A_AC3
    Продолжительность : 2 ч. 4 м.
    Вид битрейта : Постоянный
    Битрейт : 448 Кбит/сек
    Каналы : 6 каналов
    Channel layout : L R C LFE Ls Rs
    Частота : 48, 0 КГц
    Частота кадров : 31, 250 кадров/сек (1536 SPF)
    Битовая глубина : 16 бит
    Метод сжатия : С потерями
    Размер потока : 398 Мбайт (3%)
    Заголовок : MVO Цікава ідея
    Язык : Украинский
    Service Kind : Complete Main
    Default : Нет
    Forced : Нет
    Аудио #5
    Идентификатор : 6
    Формат : AC-3
    Формат/Информация : Audio Coding 3
    Коммерческое название : Dolby Digital
    Идентификатор кодека : A_AC3
    Продолжительность : 2 ч. 4 м.
    Вид битрейта : Постоянный
    Битрейт : 192 Кбит/сек
    Каналы : 2 канала
    Channel layout : L R
    Частота : 48, 0 КГц
    Частота кадров : 31, 250 кадров/сек (1536 SPF)
    Битовая глубина : 16 бит
    Метод сжатия : С потерями
    Размер потока : 171 Мбайт (1%)
    Язык : Французский
    Service Kind : Complete Main
    Default : Нет
    Forced : Нет
    Текст #1
    Идентификатор : 7
    Формат : UTF-8
    Идентификатор кодека : S_TEXT/UTF8
    Идентификатор кодека/Информация : UTF-8 Plain Text
    Язык : Русский
    Default : Нет
    Forced : Нет
    Текст #2
    Идентификатор : 8
    Формат : UTF-8
    Идентификатор кодека : S_TEXT/UTF8
    Идентификатор кодека/Информация : UTF-8 Plain Text
    Язык : Английский
    Default : Нет
    Forced : Нет
    Меню
    00: 00: 00.000 : : 01
    00: 10: 25.000 : : 02
    00: 20: 03.208 : : 03
    00: 31: 49.833 : : 04
    00: 40: 11.583 : : 05
    00: 50: 46.167 : : 06
    00: 59: 48.958 : : 07
    01: 10: 54.875 : : 08
    01: 20: 26.958 : : 09
    01: 30: 56.917 : : 10
    01: 40: 02.375 : : 11
    01: 51: 08.083 : : 12

    Скриншоты для ознакомления





    Все одноименные релизы в Клубе
    Время раздачи: 24/7 (до появления первых 3-5 скачавших)


    Онлайн видео Большая прогулка



    Большая прогулка/La Grande vadrouille (1966) BDRip [H.264/1080p] [Remastered]
    Рейтинг →
     (голосов: 1, оценка 3/5, голосовать можно 1 раз )

    Другие торренты по теме:

  • Большая прогулка / La grande vadrouille / Dont Look Now... Were Being Shot At! (1966) BDRip [H.264 / 1080p-LQ] скачать через торрент бесплатно
  • Большая прогулка / La grande vadrouille (1966) BDRip [H.264]
  • Большая прогулка / La grande vadrouille (1966) BDRip [H.264 / 1080p]
  • Большая прогулка / La grande vadrouille (1966) BDRip [H.264 / 1080p]
  • Большая прогулка / La grande vadrouille (1966) BDRip [H.264 / 720p]


    • Комментарии (0):

      Информация

      Информация

        Посетители, находящиеся в группе Гости, не могут оставлять комментарии в данной новости.

        ↓ Меню




        ↓ Опрос

        Вы добавили сайт в закладки?
        Да
        Нет


        Top 10 за месяц (Фильмы)