.
Авторизация | Регистрация
Хочешь лучшие торренты? Добавь свой email!
Добавить

Торрент скачать бесплатно

  • support: webmaster@btracker.club
» » Хэллфест / Hell Fest (2018) BDRemux [EN / EN, Fr, Sp Sub] торрент скачать бесплатно


    Хэллфест / Hell Fest (2018) BDRemux [EN / EN, Fr, Sp Sub] торрент скачать бесплатно

    Опубликовал: fregat | Дата: 1-01-2019, 05:00 | .torrent скачали: 0

    Хэллфест / Hell Fest (2018) BDRemux [EN / EN, Fr, Sp Sub]Производство: США/Tucker Tooley Entertainment, Ingenuity Studios , Valhalla Motion Pictures
    Жанр: Ужасы
    Режиссер: Грегори Плоткин

    Актеры
    Эми Форсайт, Рейн Эдвардс, Бекс Тейлор-Клаус, Кристиан Балис, Мэтт Меркьюрио, Роби Аттал, Тони Тодд, Кортни Дитц, Стивен Конрой, Микаэль Турек

    Описание

    Три подруги встречаются накануне Хэллоуина и вместе со своими парнями решают отметить праздник походом на Хэллфест, популярный фестиваль, главная цель организаторов и участников которого — напугать друг друга до полусмерти. Но для серийного убийцы в маске Хэллфест — это не просто карнавал ужасов, а площадка для смертельных игр. Он кромсает и душит у всех на виду, а возбужденная толпа и не подозревает, что вокруг множатся трупы. И, когда внимание маньяка переключается на Натали, Брук и Тейлор, девушки быстро понимают, что помощи ждать не от кого. Им предстоит бороться изо всех сил, чтобы пережить эту ночь.

    Возраст: 18+ (зрителям, достигшим 18 лет. запрещено для детей)
    Рейтинг MPAA: R (лицам до 17 лет обязательно присутствие взрослого)
    Продолжительность: 01: 28: 48
    Качество видео: BDRemux
    Перевод: Отсутствует
    Язык озвучки: Английский
    Субтитры: английские, французские, испанские
    Видео: AVC/H.264, 1920x1080, ~33.4 Mbps
    Аудио 1: DTS: X, 8 ch, 6 330 Kbps - английский
    Аудио 2: AC-3, 2 ch, 192 Kbps - английский
    Аудио 3: AC-3, 2 ch, 192 Kbps - английский

    General
    Unique ID : 219530605971084149303581588832617299403 (0xA5280E88CD12BDD373740FBDFBF8FDCB)
    Complete name : Hell.Fest.2018.REMUX.BluRay.1080p.AVC.DTS-X.7.1-iFTHell.Fest.2018.REMUX.BluRay.1080p.AVC.DTS-X.7.1-iFT.mkv
    Format : Matroska
    Format version : Version 4
    File size : 24.9 GiB
    Duration : 1 h 28 min
    Overall bit rate mode : Variable
    Overall bit rate : 40.2 Mb/s
    Encoded date : UTC 2018-12-31 09: 15: 30
    Writing application : mkvmerge v29.0.0 (\'Like It Or Not\') 64-bit
    Writing library : libebml v1.3.6 + libmatroska v1.4.9
    Video
    ID : 1
    Format : AVC
    Format/Info : Advanced Video Codec
    Format profile : High@L4.1
    Format settings : CABAC/4 Ref Frames
    Format settings, CABAC : Yes
    Format settings, RefFrames : 4 frames
    Codec ID : V_MPEG4/ISO/AVC
    Duration : 1 h 28 min
    Bit rate mode : Variable
    Bit rate : 33.4 Mb/s
    Maximum bit rate : 37.0 Mb/s
    Width : 1 920 pixels
    Height : 1 080 pixels
    Display aspect ratio : 16: 9
    Frame rate mode : Constant
    Frame rate : 23.976 (24000/1001) FPS
    Color space : YUV
    Chroma subsampling : 4: 2: 0
    Bit depth : 8 bits
    Scan type : Progressive
    Bits/(Pixel*Frame) : 0.673
    Stream size : 20.7 GiB (83%)
    Language : English
    Default : Yes
    Forced : No
    Audio #1
    ID : 2
    Format : DTS XLL X
    Format/Info : Digital Theater Systems
    Commercial name : DTS-HD Master Audio
    Codec ID : A_DTS
    Duration : 1 h 28 min
    Bit rate mode : Variable
    Bit rate : 6 330 kb/s
    Channel(s) : 8 channels
    Channel(s)_Original : Object Based
    Channel layout : Object Based
    Sampling rate : 48.0 kHz
    Frame rate : 93.750 FPS (512 SPF)
    Bit depth : 24 bits
    Stream size : 3.93 GiB (16%)
    Language : English
    Default : Yes
    Forced : No
    Audio #2
    ID : 3
    Format : AC-3
    Format/Info : Audio Coding 3
    Commercial name : Dolby Digital
    Codec ID : A_AC3
    Duration : 1 h 28 min
    Bit rate mode : Constant
    Bit rate : 192 kb/s
    Channel(s) : 2 channels
    Channel layout : L R
    Sampling rate : 48.0 kHz
    Frame rate : 31.250 FPS (1536 SPF)
    Bit depth : 16 bits
    Compression mode : Lossy
    Stream size : 122 MiB (0%)
    Language : English
    Service kind : Complete Main
    Default : No
    Forced : No
    Audio #3
    ID : 4
    Format : AC-3
    Format/Info : Audio Coding 3
    Commercial name : Dolby Digital
    Codec ID : A_AC3
    Duration : 1 h 28 min
    Bit rate mode : Constant
    Bit rate : 192 kb/s
    Channel(s) : 2 channels
    Channel layout : L R
    Sampling rate : 48.0 kHz
    Frame rate : 31.250 FPS (1536 SPF)
    Bit depth : 16 bits
    Compression mode : Lossy
    Stream size : 122 MiB (0%)
    Language : English
    Service kind : Complete Main
    Default : No
    Forced : No
    Text #1
    ID : 5
    Format : PGS
    Muxing mode : zlib
    Codec ID : S_HDMV/PGS
    Codec ID/Info : Picture based subtitle format used on BDs/HD-DVDs
    Duration : 1 h 23 min
    Bit rate : 40.1 kb/s
    Count of elements : 2262
    Stream size : 23.9 MiB (0%)
    Language : frs
    Default : Yes
    Forced : No
    Text #2
    ID : 6
    Format : PGS
    Muxing mode : zlib
    Codec ID : S_HDMV/PGS
    Codec ID/Info : Picture based subtitle format used on BDs/HD-DVDs
    Duration : 1 h 23 min
    Bit rate : 51.8 kb/s
    Count of elements : 2946
    Stream size : 31.0 MiB (0%)
    Language : English
    Default : No
    Forced : No
    Text #3
    ID : 7
    Format : PGS
    Muxing mode : zlib
    Codec ID : S_HDMV/PGS
    Codec ID/Info : Picture based subtitle format used on BDs/HD-DVDs
    Duration : 1 h 23 min
    Bit rate : 34.6 kb/s
    Count of elements : 2282
    Stream size : 20.7 MiB (0%)
    Language : Spanish
    Default : No
    Forced : No
    Menu
    00: 00: 00.000 : : Capítulo 01
    00: 04: 28.977 : : Capítulo 02
    00: 12: 09.979 : : Capítulo 03
    00: 15: 44.026 : : Capítulo 04
    00: 22: 44.029 : : Capítulo 05
    00: 28: 22.242 : : Capítulo 06
    00: 35: 17.365 : : Capítulo 07
    00: 40: 37.226 : : Capítulo 08
    00: 43: 37.782 : : Capítulo 09
    00: 49: 16.620 : : Capítulo 10
    00: 53: 22.407 : : Capítulo 11
    01: 00: 07.771 : : Capítulo 12
    01: 06: 43.583 : : Capítulo 13
    01: 11: 33.456 : : Capítulo 14
    01: 16: 33.589 : : Capítulo 15
    01: 21: 53.325 : : Capítulo 16

    Скриншоты для ознакомления



    Все одноименные релизы в Клубе
    Время раздачи: с 13: 00 до 23: 00 (до появления первых 3-5 скачавших)


    Онлайн видео Хэллфест



    Хэллфест/Hell Fest (2018) BDRemux [EN/EN, Fr, Sp Sub]
    Рейтинг →
     (голосов: 1, оценка 3/5, голосовать можно 1 раз )

    Другие торренты по теме:

  • Хэллфест / Hell Fest (2018) WEB-DLRip [Line, AD]


    • Комментарии (0):

      Информация

      Информация

        Посетители, находящиеся в группе Гости, не могут оставлять комментарии в данной новости.

        ↓ Меню




        ↓ Опрос

        Вы добавили сайт в закладки?
        Да
        Нет


        Top 10 за месяц (Фильмы)