.
Авторизация | Регистрация

Торрент скачать бесплатно

  • support: webmaster@btracker.club
» » Красная жара / Red Heat (1988) BDRip [H.265 / 1080p] [10-bit] [PR] торрент скачать бесплатно


    Красная жара / Red Heat (1988) BDRip [H.265 / 1080p] [10-bit] [PR] торрент скачать бесплатно

    Дата: 1-01-2019, 05:00 | .torrent скачали: 0

    Красная жара / Red Heat (1988) BDRip [H.265 / 1080p] [10-bit] [PR]Производство: США/Carolco Pictures Inc., Lone Wolf, Oak Pictures
    Жанр: Боевик, Комедия, Криминал
    Режиссер: Уолтер Хилл

    Актеры
    Арнольд Шварценеггер, Джеймс Белуши, Савелий Крамаров, Питер Бойл, Эд О`Росс, Лоуренс Фишборн, Джина Гершон, Ричард Брайт, Брент Дженнингс, Гретхен Палмер

    Описание

    В доперестроечные времена торговля наркотиками была из ряда вон выходящим преступлением. На борьбу с грузинским мафиози, который, используя все связи США, пытается пристрастить к кокаину советских граждан, выходит гроза преступного мира милиционер Иван Данко.
    Этот парень не любит шутить, и доказательством серьезности его намерений служат большие мускулы и пистолет. Чтобы арестовать бандита, Иван направляется в Чикаго — рассадник капиталистической заразы. Там его помощником становится болтливый полицейский. Вместе они обезвреживают мафиози, разрушив при этом пол-города и расстреляв пару десятков негодяев.

    Возраст: 18+ (зрителям, достигшим 18 лет. запрещено для детей)
    Рейтинг MPAA: R (лицам до 17 лет обязательно присутствие взрослого)
    Релиз от: Goor80
    Продолжительность: 01: 44: 10
    Качество видео: BDRip
    Перевод: Многоголосый закадровый
    Субтитры: русские, английские
    Видео: HEVC/H.265, 1912x1024, ~10, 4 Mbps
    Аудио 1: DTS, 6 ch, 1509 Kbps (русский)
    Аудио 1: DTS, 6 ch, 1509 Kbps (английский)

    Общее
    Уникальный идентификатор : 130699125833907774748029053420056070612 (0x6253BC6B788D13BF23544B0240E3C9D4)
    Полное имя : J: MoviesФильмыИностранныеКрасная жара (Red Heat).mkv
    Формат : Matroska
    Версия формата : Version 4/Version 2
    Размер файла : 9, 81 Гбайт
    Продолжительность : 1 ч. 44 м.
    Общий поток : 13, 5 Мбит/сек
    Название фильма : Красная жара/Red Heat
    Дата выпуска : 1988
    Дата кодирования : UTC 2018-09-12 19: 11: 50
    Программа кодирования : mkvmerge v20.0.0 (\'I Am The Sun\') 64-bit
    Библиотека кодирования : libebml v1.3.5 + libmatroska v1.4.8
    Авторское право : Encoded by Goor80
    Released by : Buba5473 for NNM-Club
    Видео
    Идентификатор : 1
    Формат : HEVC
    Формат/Информация : High Efficiency Video Coding
    Профиль формата : Main 10@L5@Main
    Идентификатор кодека : V_MPEGH/ISO/HEVC
    Продолжительность : 1 ч. 44 м.
    Битрейт : 10, 4 Мбит/сек
    Ширина : 1912 пикселей
    Высота : 1024 пикселя
    Соотношение сторон : 1, 85: 1
    Режим частоты кадров : Постоянный
    Частота кадров : 24, 000 кадра/сек
    Цветовое пространство : YUV
    Субдискретизация насыщенности : 4: 2: 0
    Битовая глубина : 10 бит
    Бит/(Пиксели*Кадры) : 0.222
    Размер потока : 7, 60 Гбайт (77%)
    Default : Да
    Forced : Нет
    Цветовой диапазон : Limited
    Характеристики трансфера : BT.709
    Аудио #1
    Идентификатор : 2
    Формат : DTS
    Формат/Информация : Digital Theater Systems
    Идентификатор кодека : A_DTS
    Продолжительность : 1 ч. 44 м.
    Вид битрейта : Постоянный
    Битрейт : 1509 Кбит/сек
    Каналы : 6 каналов
    Расположение каналов : Front: L C R, Side: L R, LFE
    Частота : 48, 0 КГц
    Частота кадров : 93, 750 кадра/сек (512 SPF)
    Битовая глубина : 24 бит
    Метод сжатия : С потерями
    Размер потока : 1, 10 Гбайт (11%)
    Заголовок : Перевод: Профессиональный (многоголосый, закадровый)
    Язык : Russian
    Default : Да
    Forced : Нет
    Аудио #2
    Идентификатор : 3
    Формат : DTS
    Формат/Информация : Digital Theater Systems
    Идентификатор кодека : A_DTS
    Продолжительность : 1 ч. 44 м.
    Вид битрейта : Постоянный
    Битрейт : 1509 Кбит/сек
    Каналы : 6 каналов
    Расположение каналов : Front: L C R, Side: L R, LFE
    Частота : 48, 0 КГц
    Частота кадров : 93, 750 кадра/сек (512 SPF)
    Битовая глубина : 24 бит
    Метод сжатия : С потерями
    Размер потока : 1, 10 Гбайт (11%)
    Язык : English
    Default : Нет
    Forced : Нет
    Текст #1
    Идентификатор : 4
    Формат : PGS
    Режим смешивания : zlib
    Идентификатор кодека : S_HDMV/PGS
    Идентификатор кодека/Информация : Picture based subtitle format used on BDs/HD-DVDs
    Продолжительность : 1 ч. 39 м.
    Битрейт : 28, 3 Кбит/сек
    ElementCount : 2066
    Размер потока : 20, 2 Мбайт (0%)
    Язык : Russian
    Default : Да
    Forced : Нет
    Текст #2
    Идентификатор : 5
    Формат : PGS
    Режим смешивания : zlib
    Идентификатор кодека : S_HDMV/PGS
    Идентификатор кодека/Информация : Picture based subtitle format used on BDs/HD-DVDs
    Продолжительность : 56 м. 36 с.
    Битрейт : 5045 бит/сек
    ElementCount : 182
    Размер потока : 2, 04 Мбайт (0%)
    Язык : English
    Default : Нет
    Forced : Нет
    Меню
    00: 00: 00.000 : en: 00: 00: 00.000
    00: 07: 08.833 : en: 00: 07: 08.833
    00: 14: 47.583 : en: 00: 14: 47.583
    00: 21: 55.917 : en: 00: 21: 55.917
    00: 32: 48.833 : en: 00: 32: 48.833
    00: 39: 28.208 : en: 00: 39: 28.208
    00: 51: 03.333 : en: 00: 51: 03.333
    01: 03: 08.833 : en: 01: 03: 08.833
    01: 12: 26.833 : en: 01: 12: 26.833
    01: 24: 58.292 : en: 01: 24: 58.292
    01: 28: 53.167 : en: 01: 28: 53.167
    01: 37: 43.625 : en: 01: 37: 43.625
    XMP
    Xmp.video.FileName : J: MoviesФильмыИностранныеКрасная жара (Red Heat).mkv
    Xmp.video.FileSize : -9.53674e-007
    Xmp.video.MimeType : video/matroska
    Xmp.video.EBMLVersion : 1
    Xmp.video.EBMLReadVersion : 1
    Xmp.video.DocType : matroska
    Xmp.video.DocTypeVersion : 4
    Xmp.video.DocTypeReadVersion : 2
    Xmp.video.TimecodeScale : 0.001
    Xmp.video.MuxingApp : libebml v1.3.5 + libmatroska v1.4.8
    Xmp.video.WritingApp : mkvmerge v20.0.0 (\'I Am The Sun\') 64-bit
    Xmp.video.Duration : 6250006
    Xmp.video.DateUTC : 558472310
    Xmp.video.Title : Красная жара/Red Heat
    Xmp.video.TotalStream : 74
    Xmp.video.TrackLacing : No
    Xmp.video.Codec : V_MPEGH/ISO/HEVC
    Xmp.video.TrackLang : und
    Xmp.video.Width : 1912
    Xmp.video.Height : 1024
    Xmp.video.FrameRate : 24
    Xmp.audio.Compressor : A_DTS
    Xmp.audio.DefaultDuration : 10666
    Xmp.audio.TrackLang : rus
    Xmp.video.TrackName : Перевод: ПрофессионаРьный (РјРЅРѕРіРѕРіРѕРосый, закадровый)
    Xmp.audio.SampleRate : 48000
    Xmp.audio.BitsPerSample : 24
    Xmp.audio.DefaultOn : No
    Xmp.video.SubTTrackLacing : No
    Xmp.video.SubTCodec : S_HDMV/PGS
    Xmp.video.SubTLang : rus
    Xmp.video.SubTDefaultOn : No
    Xmp.video.AspectRatio : 1.8
    H.265/HEVC (High Efficiency Video Coding) - это новый стандарт кодирования видео.
    *Рипы в фомате HEVC, в настоящее время поддерживается не всеми аппаратными проигрывателями.
    *Для корректного воспроизведения может потребоваться обновление ПО.
    *Стандарт H.265/HEVC является логическим продолжением стандарта H.264/AVC (Advanced Video Coding), и характеризуется более эффективными алгоритмами сжатия, а также поддержкой высокого разрешения вплоть до 8K UHD (8192x4320). Первая версия стандарта H.265 была опубликована в начале 2013 года.
    Любителям решения из коробки - установить последнюю версию на выбор:
    Media Player Classic - Black Edition (MPC-BE)
    VLC media player
    Daum Pot Player
    GOM Media Player
    Любителям WMP и других плееров, использующих по умолчанию для воспроизведения системные кодеки+сплитеры - установить K-Lite Codec Pack версии 10.1.0 и выше.
    Любимые плееры, не использующии по умолчанию для воспроизведения системные кодеки+сплитеры, нужно перенастроить на использование оных.

    Скриншоты для ознакомления



    Все одноименные релизы в Клубе
    Время раздачи: с 11: 00 до 21: 00 по Новосибирску (UTC +7) (до появления первых 3-5 скачавших)


    Онлайн видео Красная жара



    Красная жара/Red Heat (1988) BDRip [H.265/1080p] [10-bit] [PR]
    Рейтинг →
     (голосов: 1, оценка 4/5, голосовать можно 1 раз )

    Другие торренты по теме:

  • Красная жара / Red Heat (1988) BDRip [1080p] ATV
  • Красная Жара / Red Heat (1988) [720p] BDRip


    • Комментарии (0):

      Информация

      Информация

        Посетители, находящиеся в группе Гости, не могут оставлять комментарии в данной новости.

        ↓ Меню




        ↓ Опрос

        Вы добавили сайт в закладки?
        Да
        Нет


        Top 10 за месяц (Фильмы)