.
Авторизация | Регистрация

Торрент скачать бесплатно

  • support: webmaster@btracker.club
» » S.W.A.T.: Спецназ города ангелов / S.W.A.T. (2003) BDRip [H.264 / 720p] торрент скачать бесплатно


    S.W.A.T.: Спецназ города ангелов / S.W.A.T. (2003) BDRip [H.264 / 720p] торрент скачать бесплатно

    Дата: 1-01-2019, 05:00 | .torrent скачали: 0

    S.W.A.T.: Спецназ города ангелов / S.W.A.T. (2003) BDRip [H.264 / 720p]Производство: США/Camelot Pictures, Columbia Pictures Corporation
    Жанр: Боевик, Триллер, Криминал
    Режиссер: Кларк Джонсон

    Актеры
    Сэмюэл Л. Джексон, Колин Фаррелл, Мишель Родригес, LL Кул Джей, Джош Чарльз, Джереми Реннер, Брайан Ван Холт, Оливье Мартинес, Рег Э. Кэти, Ларри Поиндекстер

    Описание

    В полиции США существует множество видов спецназа, но самым крутым по праву считается Особое подразделение, отбор в ряды которого является настоящим испытанием. Джима Стрита из лос-анджелесской полиции зачисляют в состав Особого подразделения.
    После обучения и тренировок молодое пополнение во главе с командиром Хондо ждет первое испытание — перевозка известного наркобарона из тюрьмы в руки ФБР.
    Простое на первый взгляд задание осложняется тем, что богатый пленник назначает за свое освобождение невероятный куш — 100 миллионов долларов! Поэтому на всем пути следования подразделению предстоит отбивать непрекращающиеся атаки желающих получить награду…

    Возраст: 16+ (зрителям, достигшим 16 лет)
    Рейтинг MPAA: PG-13 (детям до 13 лет просмотр нежелателен)
    Релиз от: k.e.n MegaPeer
    Продолжительность: 01: 57: 17
    Качество видео: BDRip 720p
    Перевод: Дублированный, многоголосый, двухголосый, авторский
    Субтитры: русские, английские
    Видео: AVC, 1280x532 (2.40: 1), 23.976 fps, 4 547 Kbps (0.279 bit/pixel)
    Аудио #1: AC-3, 48.0 KHz, 6 ch, 448 Kbps, CBR (Russian) - Дублированный (Невафильм)
    Аудио #2: AC-3, 48.0 KHz, 6 ch, 384 Kbps, CBR (Russian) - многоголосый
    Аудио #3: AC-3, 48.0 KHz, 6 ch, 384 Kbps, CBR (Russian) - двухголосый
    Аудио #4: AC-3, 48.0 KHz, 6 ch, 448 Kbps, CBR (Russian) - авторский, Ю.Живов
    Аудио #5: AC-3, 48.0 KHz, 6 ch, 448 Kbps, CBR (English) - оригинал

    Полное имя : D: ФИЛЬМЫS.W.A.T. Спецназ города ангелов.2003 (К.Фаррелл) .mkv
    Формат : Matroska
    Версия формата : Version 2
    Размер файла : 5, 44 Гбайт
    Продолжительность : 1 ч. 57 м.
    Общий поток : 6644 Кбит/сек
    Дата кодирования : UTC 2018-12-31 08: 20: 48
    Программа кодирования : mkvmerge v5.3.0 (\'I could have danced\') built on Feb 9 2012 10: 38: 07
    Библиотека кодирования : libebml v1.2.3 + libmatroska v1.3.0
    Attachments : poster 1.jpg
    Видео
    Идентификатор : 1
    Формат : AVC
    Формат/Информация : Advanced Video Codec
    Профиль формата : High@L4.1
    Параметр CABAC формата : Да
    Параметр ReFrames формата : 12 кадров
    Идентификатор кодека : V_MPEG4/ISO/AVC
    Продолжительность : 1 ч. 57 м.
    Битрейт : 4547 Кбит/сек
    Ширина : 1280 пикселей
    Высота : 532 пикселя
    Соотношение сторон : 2, 40: 1
    Режим частоты кадров : Постоянный
    Частота кадров : 23, 976 (24000/1001) кадра/сек
    Цветовое пространство : YUV
    Субдискретизация насыщенности : 4: 2: 0
    Битовая глубина : 8 бит
    Тип развёртки : Прогрессивная
    Бит/(Пиксели*Кадры) : 0.279
    Размер потока : 3, 60 Гбайт (66%)
    Библиотека кодирования : x264 core 146 r2538 121396c
    Настройки программы : cabac=1/ref=12/deblock=1: -3: -3/analyse=0x3: 0x133/me=umh/subme=11/psy=1/psy_rd=1.00: 0.00/mixed_ref=1/me_range=32/chroma_me=1/trellis=2/8x8dct=1/cqm=0/deadzone=21, 11/fast_pskip=0/chroma_qp_offset=-2/threads=12/lookahead_threads=3/sliced_threads=0/nr=0/decimate=0/interlaced=0/bluray_compat=0/constrained_intra=0/bframes=12/b_pyramid=2/b_adapt=2/b_bias=0/direct=3/weightb=1/open_gop=0/weightp=2/keyint=240/keyint_min=23/scenecut=40/intra_refresh=0/rc=2pass/mbtree=0/bitrate=4547/ratetol=1.0/qcomp=0.60/qpmin=0/qpmax=69/qpstep=4/cplxblur=20.0/qblur=0.5/ip_ratio=1.40/pb_ratio=1.30/aq=3: 0.80
    Язык : English
    Default : Да
    Forced : Нет
    Аудио #1
    Идентификатор : 2
    Формат : AC-3
    Формат/Информация : Audio Coding 3
    Расширение режима : CM (complete main)
    Параметр Endianness формата : Big
    Идентификатор кодека : A_AC3
    Продолжительность : 1 ч. 57 м.
    Вид битрейта : Постоянный
    Битрейт : 448 Кбит/сек
    Каналы : 6 каналов
    Расположение каналов : Front: L C R, Side: L R, LFE
    Частота : 48, 0 КГц
    Частота кадров : 31, 250 кадров/сек (1536 spf)
    Битовая глубина : 16 бит
    Метод сжатия : С потерями
    Размер потока : 376 Мбайт (7%)
    Заголовок : Дублированный (Невафильм)
    Язык : Russian
    Default : Да
    Forced : Нет
    Аудио #2
    Идентификатор : 3
    Формат : AC-3
    Формат/Информация : Audio Coding 3
    Расширение режима : CM (complete main)
    Параметр Endianness формата : Big
    Идентификатор кодека : A_AC3
    Продолжительность : 1 ч. 57 м.
    Вид битрейта : Постоянный
    Битрейт : 384 Кбит/сек
    Каналы : 6 каналов
    Расположение каналов : Front: L C R, Side: L R, LFE
    Частота : 48, 0 КГц
    Частота кадров : 31, 250 кадров/сек (1536 spf)
    Битовая глубина : 16 бит
    Метод сжатия : С потерями
    Размер потока : 322 Мбайт (6%)
    Заголовок : Многоголосый
    Язык : Russian
    Default : Нет
    Forced : Нет
    Аудио #3
    Идентификатор : 4
    Формат : AC-3
    Формат/Информация : Audio Coding 3
    Расширение режима : CM (complete main)
    Параметр Endianness формата : Big
    Идентификатор кодека : A_AC3
    Продолжительность : 1 ч. 57 м.
    Вид битрейта : Постоянный
    Битрейт : 384 Кбит/сек
    Каналы : 6 каналов
    Расположение каналов : Front: L C R, Side: L R, LFE
    Частота : 48, 0 КГц
    Частота кадров : 31, 250 кадров/сек (1536 spf)
    Битовая глубина : 16 бит
    Метод сжатия : С потерями
    Размер потока : 322 Мбайт (6%)
    Заголовок : Двухголосый
    Язык : Russian
    Default : Нет
    Forced : Нет
    Аудио #4
    Идентификатор : 5
    Формат : AC-3
    Формат/Информация : Audio Coding 3
    Расширение режима : CM (complete main)
    Параметр Endianness формата : Big
    Идентификатор кодека : A_AC3
    Продолжительность : 1 ч. 57 м.
    Вид битрейта : Постоянный
    Битрейт : 448 Кбит/сек
    Каналы : 6 каналов
    Расположение каналов : Front: L C R, Side: L R, LFE
    Частота : 48, 0 КГц
    Частота кадров : 31, 250 кадров/сек (1536 spf)
    Битовая глубина : 16 бит
    Метод сжатия : С потерями
    Размер потока : 376 Мбайт (7%)
    Заголовок : Авторский одноголосый (Живов)
    Язык : Russian
    Default : Нет
    Forced : Нет
    Аудио #5
    Идентификатор : 6
    Формат : AC-3
    Формат/Информация : Audio Coding 3
    Расширение режима : CM (complete main)
    Параметр Endianness формата : Big
    Идентификатор кодека : A_AC3
    Продолжительность : 1 ч. 57 м.
    Вид битрейта : Постоянный
    Битрейт : 448 Кбит/сек
    Каналы : 6 каналов
    Расположение каналов : Front: L C R, Side: L R, LFE
    Частота : 48, 0 КГц
    Частота кадров : 31, 250 кадров/сек (1536 spf)
    Битовая глубина : 16 бит
    Метод сжатия : С потерями
    Размер потока : 376 Мбайт (7%)
    Заголовок : Оригинал
    Язык : English
    Default : Нет
    Forced : Нет
    Текст #1
    Идентификатор : 7
    Формат : UTF-8
    Идентификатор кодека : S_TEXT/UTF8
    Идентификатор кодека/Информация : UTF-8 Plain Text
    Заголовок : Rus
    Язык : Russian
    Default : Да
    Forced : Нет
    Текст #2
    Идентификатор : 8
    Формат : UTF-8
    Идентификатор кодека : S_TEXT/UTF8
    Идентификатор кодека/Информация : UTF-8 Plain Text
    Заголовок : Eng
    Язык : English
    Default : Нет
    Forced : Нет
    Меню
    00: 00: 00.000 : : Chapter 01
    00: 08: 58.371 : : Chapter 02
    00: 16: 15.307 : : Chapter 03
    00: 22: 52.621 : : Chapter 04
    00: 30: 17.941 : : Chapter 05
    00: 35: 21.369 : : Chapter 06
    00: 40: 53.909 : : Chapter 07
    00: 47: 46.613 : : Chapter 08
    00: 55: 03.216 : : Chapter 09
    01: 03: 33.392 : : Chapter 10
    01: 10: 12.082 : : Chapter 11
    01: 20: 52.639 : : Chapter 12
    01: 27: 59.816 : : Chapter 13
    01: 38: 52.509 : : Chapter 14
    01: 43: 26.867 : : Chapter 15
    01: 46: 14.618 : : Chapter 16

    Скриншоты для ознакомления



    Все одноименные релизы в Клубе
    Время раздачи: с 23: 00 до 8: 30 (до появления первых 3-5 скачавших)


    Онлайн видео S.W.A.T.: Спецназ города ангелов



    S.W.A.T.: Спецназ города ангелов/S.W.A.T. (2003) BDRip [H.264/720p]
    Рейтинг →
     (голосов: 1, оценка 3/5, голосовать можно 1 раз )

    Другие торренты по теме:

  • Спецназ города ангелов / S.W.A.T. (2017) WEBRip [H.264 / 720p-LQ] (сезон 1, серии 1-8 из 12) BaibaKo (обновляемая) [AD]
  • Спецназ города ангелов / S.W.A.T. (2017) WEBRip [H.264] (сезон 1, серии 1-14 из 17) BaibaKo [MP4|720x400] [AD] (обновляемая)
  • Спецназ города ангелов / S.W.A.T. (2018) WEB-DLRip [H.264] (сезон 2, серии 1-8 из 10) BaibaKo [MP4|720x400] [AD] (обновляемая)


    • Комментарии (0):

      Информация

      Информация

        Посетители, находящиеся в группе Гости, не могут оставлять комментарии в данной новости.

        ↓ Меню




        ↓ Опрос

        Вы добавили сайт в закладки?
        Да
        Нет


        Top 10 за месяц (Фильмы)