.
Авторизация | Регистрация

Торрент скачать бесплатно

  • support: webmaster@btracker.club
» » Хэллфест / Hell Fest (2018) WEB-DLRip [Line, AD] торрент скачать бесплатно


    Хэллфест / Hell Fest (2018) WEB-DLRip [Line, AD] торрент скачать бесплатно

    Дата: 1-01-2019, 05:00 | .torrent скачали: 0

    Хэллфест / Hell Fest (2018) WEB-DLRip [Line, AD]Производство: США/Tucker Tooley Entertainment, Valhalla Motion Pictures
    Жанр: Ужасы
    Режиссер: Грегори Плоткин
    Продюсер: Такер Тули, Алекс Гинно, Гейл Энн Хёрд

    Актеры
    Эми Форсайт, Рейн Эдвардс, Бекс Тейлор-Клаус, Кристиан Балис, Мэтт Меркьюрио, Тони Тодд, Микаэль Турек, Кортни Дитц, Эль Грэхэм, Алисия Росато

    Описание

    Три подруги встречаются накануне Хэллоуина и вместе со своими парнями решают отметить праздник походом на Хэллфест, популярный фестиваль, главная цель организаторов и участников которого — напугать друг друга до полусмерти. Но для серийного убийцы в маске Хэллфест — это не просто карнавал ужасов, а площадка для смертельных игр. Он кромсает и душит у всех на виду, а возбужденная толпа и не подозревает, что вокруг множатся трупы. И, когда внимание маньяка переключается на Натали, Брук и Тейлор, девушки быстро понимают, что помощи ждать не от кого. Им предстоит бороться изо всех сил, чтобы пережить эту ночь.

    Возраст: 18+ (зрителям, достигшим 18 лет. запрещено для детей)
    Рейтинг MPAA: R (лицам до 17 лет обязательно присутствие взрослого)
    Дата мировой премьеры: 27 сентября 2018
    Дата российской премьеры: 11 октября 2018, Централ Партнершип
    Продолжительность: 01: 28: 48
    Качество видео: WEB-DLRip
    Перевод: Дублированный (чистый звук)
    Субтитры: Отсутствуют
    Реклама: Присутствуют вставки голосовой и текстовой рекламы
    Видео: Xvid, 720x384, ~1668 Kbps
    Аудио: AC3, 2 ch, 384 Kbps

    Общее
    Полное имя : D: CDХэллфест (Ужасы) WEB-DLRip-LineХэллфест (2018) WEB-DLRip-Line.avi
    Формат : AVI
    Формат/Информация : Audio Video Interleave
    Размер файла : 1, 32 Гбайт
    Продолжительность : 1 ч. 28 м.
    Общий поток : 2125 Кбит/сек
    Программа кодирования : VirtualDubMod 1.5.10.2 (build 2540/release)
    Библиотека кодирования : VirtualDub build 35576/release
    Видео
    Идентификатор : 0
    Формат : MPEG-4 Visual
    Профиль формата : Advanced Simple@L5
    Настройки формата : BVOP2/Custom Matrix
    Параметр BVOP формата : 2
    Параметр QPel формата : Нет
    Параметр GMC формата : Без точки перехода
    Параметр матрицы формата : Выборочная
    Идентификатор кодека : XVID
    Идентификатор кодека/Подсказка : XviD
    Продолжительность : 1 ч. 28 м.
    Битрейт : 1668 Кбит/сек
    Ширина : 720 пикселей
    Высота : 384 пикселя
    Соотношение сторон : 1, 85: 1
    Частота кадров : 23, 976 (24000/1001) кадра/сек
    Цветовое пространство : YUV
    Субдискретизация насыщенности : 4: 2: 0
    Битовая глубина : 8 бит
    Тип развёртки : Прогрессивная
    Метод сжатия : С потерями
    Бит/(Пиксели*Кадры) : 0.252
    Размер потока : 1, 03 Гбайт (78%)
    Библиотека кодирования : XviD 1.2.1 (UTC 2008-12-04)
    Аудио
    Идентификатор : 1
    Формат : AC-3
    Формат/Информация : Audio Coding 3
    Коммерческое название : Dolby Digital
    Идентификатор кодека : 2000
    Продолжительность : 1 ч. 28 м.
    Вид битрейта : Постоянный
    Битрейт : 448 Кбит/сек
    Каналы : 2 канала
    Channel layout : L R
    Частота : 48, 0 КГц
    Частота кадров : 31, 250 кадров/сек (1536 SPF)
    Битовая глубина : 16 бит
    Метод сжатия : С потерями
    Размер потока : 285 Мбайт (21%)
    Выравнивание : Разделение по промежуткам
    Продолжительность промежутка : 42 мс. (1, 00 видеокадр)
    Время предзагрузки промежутка : 500 мс.
    ServiceKind/String : Complete Main


    Онлайн видео Хэллфест



    Хэллфест/Hell Fest (2018) WEB-DLRip [Line, AD]
    Рейтинг →
     (голосов: 1, оценка 3/5, голосовать можно 1 раз )

    Другие торренты по теме:

  • Хэллфест / Hell Fest (2018) BDRemux [EN / EN, Fr, Sp Sub]
  • Хэллфест / Hell Fest (2018) BDRemux [H.264 / 1080p]
  • Хэллфест / Hell Fest (2018) BDRip [H.264 / 1080p]
  • Хэллфест / Hell Fest (2018) UHD BDRip [H.265 / 2160p] [4K, HDR, 10-bit]
  • Хэллфест / Hell Fest (2018) BDRip [H.264]
  • Хэллфест / Hell Fest (2018) UHD BDRemux [H.265 / 2160p] [4K, HDR, 10-bit]


    • Комментарии (0):

      Информация

      Информация

        Посетители, находящиеся в группе Гости, не могут оставлять комментарии в данной новости.

        ↓ Меню




        ↓ Опрос

        Вы добавили сайт в закладки?
        Да
        Нет


        Top 10 за месяц (Фильмы)