.
Авторизация | Регистрация
Хочешь лучшие торренты? Добавь свой email!
Добавить

Торрент скачать бесплатно

  • support: webmaster@btracker.club
» » Черное зеркало: Брандашмыг / Black Mirror: Bandersnatch (2018) WEBRip [H.264 / 1080p] [5 часовая версия] [MVO] торрент скачать бесплатно


    Черное зеркало: Брандашмыг / Black Mirror: Bandersnatch (2018) WEBRip [H.264 / 1080p] [5 часовая версия] [MVO] торрент скачать бесплатно

    Опубликовал: fregat | Дата: 1-01-2019, 05:00 | .torrent скачали: 7

    Черное зеркало: Брандашмыг / Black Mirror: Bandersnatch (2018) WEBRip [H.264 / 1080p] [5 часовая версия] [MVO]Производство: США/House Of Tomorrow, Netflix
    Жанр: Фантастика, триллер, драма, детектив
    Режиссер: Дэвид Слэйд,

    Актеры
    Финн Уайтхед, Крэйг Паркинсон, Элис Лоу, Азим Чаудхри, Уилл Поултер, Таллула Роуз Хэддон, Катриона Нокс, Пол Брэдли, Джонатан Арис, А.Дж. Хотон

    Описание

    1984 год. Молодой программист Стефан с многолетним чувством вины за смерть матери пытается написать компьютерную игру по фантастическому роману. Вскоре реальность искажается, создавая невообразимую путаницу в и без того нездоровом сознании парня. Эпизод интерактивный (на Netflix) и содержит 5 вариантов финала, которые зависят только от выбора зрителя по ходу просмотра. Здесь же вы можете просмотреть все варианты развития сюжета.

    Дата мировой премьеры: 28 декабря 2018
    Продолжительность: 05: 12: 58
    Качество видео: WEBRip (1080p)
    Перевод: Профессиональный многоголосый, закадровый (BaibaKo)
    Субтитры: Отсутствуют
    Видео: H.264/AVC, 1920x1080, ~4612 Kbps
    Аудио#1: AC3, 6 ch, 640 Kbps - Русский MVO, Baibako
    Аудио#2: AC3, 6 ch, 640 Kbps - English, Original
    Эпизод интерактивный (на Netflix) и содержит 5 вариантов финала, которые зависят только от выбора зрителя по ходу просмотра. При показе на сервисе время на принятие решения ограничено. В том случае, если пользователь не успевает сделать выбор самостоятельно, он делается по умолчанию. 68 раз стриминговый сервис самостоятельно выбирал развитие событий — этот линейный таймлайн и считается основным и длится 1ч. 33 мин, за которые вам не раз намекнут, чего стоит этот самый ваш выбор и отправят крутиться с повторами и ответвлениями еще пару-тройку часов.
    P.S. Здесь же вы можете просмотреть все варианты развития сюжета, которые в сумме составляют 5 ч. 12 минут. Принятие каких решений пользователями на что влияло, можно определить на основе блок-схемы, которая прилагается к раздаче (схема на англ. яз). Поиграем в собери свой сериал? Чем еще заняться в новогоднюю ночь и до самого дня Сурка? (Зловещее - ха-ха-ха-ха-ха)
    Серия называется Bandersnatch, что переводят как Бандерснэтч, Брандашмыг или Кровопир. Это одно из многих архаичных бессмысленных и бестолковых слов, используемых в классической поэме Льюиса Кэрролла The Jabberwocky для обозначения ужасного чудовища (возможно родственного семейству чупакабровых), сказке Алиса в Зазеркалье и поэме Охота на Снарка. По сюжету девять человек и бобёр выслеживают Снарка, и при встрече с Бандерснэтчем один из героев сходит с ума. Алиса в произведении Кэролла вспоминает о Брандашмыге, когда цитирует стих Бармаглот (в переводе Д. Орловской), где Брандашмыг – исполин, который рымит в глуше.

    General
    Unique ID : 76355813215964899034470886647620733704 (0x3971983EEB3E69446061D926A4108B08)
    Complete name : /mnt/sdb2/Black.Mirror.s05e00.Bandersnatch.Full.Version.HD1080p.WEBRip.Rus.Eng.BaibaKo/Black.Mirror.s05e00.Bandersnatch.Full.Version.HD1080p.WEBRip.Rus.Eng.BaibaKo.mkv
    Format : Matroska
    Format version : Version 4/Version 2
    File size : 12.9 GiB
    Duration : 5 h 12 min
    Overall bit rate : 5 894 kb/s
    Encoded date : UTC 2018-12-30 01: 53: 35
    Writing application : mkvmerge v29.0.0 (\'Like It Or Not\') 64-bit
    Writing library : libebml v1.3.6 + libmatroska v1.4.9
    Video
    ID : 1
    Format : AVC
    Format/Info : Advanced Video Codec
    Format profile : High@L4
    Format settings : CABAC/4 Ref Frames
    Format settings, CABAC : Yes
    Format settings, ReFrames : 4 frames
    Codec ID : V_MPEG4/ISO/AVC
    Duration : 5 h 12 min
    Bit rate : 4 612 kb/s
    Width : 1 920 pixels
    Height : 1 080 pixels
    Display aspect ratio : 16: 9
    Frame rate mode : Constant
    Frame rate : 25.000 FPS
    Color space : YUV
    Chroma subsampling : 4: 2: 0
    Bit depth : 8 bits
    Scan type : Progressive
    Bits/(Pixel*Frame) : 0.089
    Stream size : 10.1 GiB (78%)
    Writing library : x264 core 152 r2851 ba24899
    Encoding settings : cabac=1/ref=3/deblock=1: 0: 0/analyse=0x3: 0x113/me=hex/subme=7/psy=1/psy_rd=1.00: 0.00/mixed_ref=1/me_range=16/chroma_me=1/trellis=1/8x8dct=1/cqm=0/deadzone=21, 11/fast_pskip=1/chroma_qp_offset=-2/threads=30/lookahead_threads=5/sliced_threads=0/nr=0/decimate=1/interlaced=0/bluray_compat=0/constrained_intra=0/bframes=3/b_pyramid=2/b_adapt=1/b_bias=0/direct=1/weightb=1/open_gop=0/weightp=2/keyint=250/keyint_min=25/scenecut=40/intra_refresh=0/rc_lookahead=40/rc=crf/mbtree=1/crf=18.0/qcomp=0.60/qpmin=0/qpmax=69/qpstep=4/ip_ratio=1.40/aq=1: 1.00
    Default : No
    Forced : No
    Audio #1
    ID : 2
    Format : AC-3
    Format/Info : Audio Coding 3
    Codec ID : A_AC3
    Duration : 5 h 12 min
    Bit rate mode : Constant
    Bit rate : 640 kb/s
    Channel(s) : 6 channels
    Channel positions : Front: L C R, Side: L R, LFE
    Sampling rate : 48.0 kHz
    Frame rate : 31.250 FPS (1536 SPF)
    Bit depth : 16 bits
    Compression mode : Lossy
    Stream size : 1.40 GiB (11%)
    Language : Russian
    Service kind : Complete Main
    Default : Yes
    Forced : No
    Audio #2
    ID : 3
    Format : AC-3
    Format/Info : Audio Coding 3
    Codec ID : A_AC3
    Duration : 5 h 12 min
    Bit rate mode : Constant
    Bit rate : 640 kb/s
    Channel(s) : 6 channels
    Channel positions : Front: L C R, Side: L R, LFE
    Sampling rate : 48.0 kHz
    Frame rate : 31.250 FPS (1536 SPF)
    Bit depth : 16 bits
    Compression mode : Lossy
    Stream size : 1.40 GiB (11%)
    Language : English
    Service kind : Complete Main
    Default : No
    Forced : No

    Скриншоты для ознакомления



    Все одноименные релизы в Клубе Время раздачи: 24/7 (до появления первых 3-5 скачавших)


    Онлайн видео Черное зеркало: Брандашмыг



    Черное зеркало: Брандашмыг/Black Mirror: Bandersnatch (2018) WEBRip [H.264/1080p] [5 часовая версия] [MVO]
    Рейтинг →
     (голосов: 1, оценка 3/5, голосовать можно 1 раз )

    Другие торренты по теме:

  • Черное зеркало / Black Mirror (2014) HDTVRip (сезон 3, серии 1 из ) BaibaKo (обновляемая)
  • Черное зеркало / Black Mirror (2014) HDTVRip [H.264 / 720p-LQ] (Сезон 3, эпизод 1 из ) (Кубик в Кубе) (обновляемая)
  • Черное зеркало с Евгением Киселевым (12.02.2016) SATRip [UKR / RUS]
  • Черное зеркало / Black Mirror (2016) WEBRip [H.264 / 720p-LQ] (сезон 3, серии 1 из 6) NewStudio (обновляемая)
  • Черное зеркало / Black Mirror (2014, 2016) HDTVRip / WEBRip (сезон 3, серии 0-6 из 6) BaibaKo
  • Black Mirror 2 / Черное зеркало 2 (2010) [Ru] (1.01) License GOG
  • Черное зеркало / Black Mirror (2011) WEB-DLRip 1080p [Сезон 01] (BaibaKo)
  • Black Mirror 3: Final Fear / Черное зеркало 3 (2011) [Ru / En] (1.01) License GOG


    • Комментарии (0):

      Информация

      Информация

        Посетители, находящиеся в группе Гости, не могут оставлять комментарии в данной новости.

        ↓ Меню




        ↓ Опрос

        Вы добавили сайт в закладки?
        Да
        Нет


        Top 10 за месяц (Фильмы)