.
Авторизация | Регистрация
Хочешь лучшие торренты? Добавь свой email!
Добавить

Торрент скачать бесплатно

  • support: webmaster@btracker.club
» » Игра окончена, чувак! / Game Over, Man! (2018) WEBRip [H.264 / 1080p] [MVO] торрент скачать бесплатно


    Игра окончена, чувак! / Game Over, Man! (2018) WEBRip [H.264 / 1080p] [MVO] торрент скачать бесплатно

    Опубликовал: fregat | Дата: 1-01-2019, 05:00 | .torrent скачали: 0

    Игра окончена, чувак! / Game Over, Man! (2018) WEBRip [H.264 / 1080p] [MVO]Производство: США/Point Grey Pictures, Scott Rudin Productions
    Жанр: Боевик, Комедия
    Режиссер: Кайл Ньюачек

    Актеры
    Адам Дивайн, Стефани Бирд, Стив Хоуи, Андерс Холм, Нил МакДонаф, Локлин Манро, Хлоя Бриджес, Блейк Андерсон, Ая Кэш, Джер Бернс

    Описание

    Три друга совсем скоро должны вывести на рынок свою новую видеоигру, которая должна принести им признание и богатство. Но по невероятному стечению обстоятельств их главный спонсор попадает в заложники к террористам. Надежды на полицию нет, поэтому они решают разобраться с проблемой своими силами.

    Дата мировой премьеры: 21 марта 2018
    Дата российской премьеры: неизвестна
    Продолжительность: 01: 41: 40
    Качество видео: WEBRip
    Перевод: Многоголосый закадровый, профессиональный (BaibaKo )
    Субтитры: Английские
    Присутствует ненормативная лексика
    Видео: AVC/H.264, 1920x804, ~9778 Kbps
    Аудио #1: AC3, 6 ch, 384 Kbps | Русский (MVO, BaibaKo)
    Аудио #2: AC3, 6 ch, 384 Kbps | Английский

    бщее
    Уникальный идентификатор : 250835321597381593884172035649302870930 (0xBCB5202DB519CC9229AB42E39056BB92)
    Полное имя : C: UsersUserDesktopNNMClubGame.Over.Man.2018.1080p.Netflix.WEBRip.mkv
    Формат : Matroska
    Версия формата : Version 4
    Размер файла : 7, 49 Гбайт
    Продолжительность : 1 ч. 41 м.
    Общий поток : 10, 5 Мбит/сек
    Дата кодирования : UTC 2018-12-31 12: 12: 43
    Программа кодирования : mkvmerge v28.2.0 (\'The Awakening\') 64-bit
    Библиотека кодирования : libebml v1.3.6 + libmatroska v1.4.9
    Обложка : Yes
    Attachments : cover.jpg
    Видео
    Идентификатор : 1
    Формат : AVC
    Формат/Информация : Advanced Video Codec
    Профиль формата : High@L4.1
    Настройки формата : CABAC/5 Ref Frames
    Параметр CABAC формата : Да
    Параметр RefFrames формата : 5 кадров
    Идентификатор кодека : V_MPEG4/ISO/AVC
    Продолжительность : 1 ч. 41 м.
    Битрейт : 9778 Кбит/сек
    Ширина : 1920 пикселей
    Высота : 804 пикселя
    Соотношение сторон : 2, 40: 1
    Режим частоты кадров : Постоянный
    Частота кадров : 23, 976 (24000/1001) кадра/сек
    Цветовое пространство : YUV
    Субдискретизация насыщенности : 4: 2: 0
    Битовая глубина : 8 бит
    Тип развёртки : Прогрессивная
    Бит/(Пиксели*Кадры) : 0.264
    Размер потока : 6, 94 Гбайт (93%)
    Заголовок : WEBRip.1080p by Silverok
    Библиотека кодирования : x264 core 152 r2851kMod ba24899
    Настройки программы : cabac=1/ref=5/deblock=1: -3: -3/analyse=0x3: 0x133/me=umh/subme=10/psy=1/fade_compensate=0.00/psy_rd=1.00: 0.00/mixed_ref=1/me_range=48/chroma_me=1/trellis=2/8x8dct=1/cqm=0/deadzone=21, 11/fast_pskip=0/chroma_qp_offset=-2/threads=12/lookahead_threads=2/sliced_threads=0/nr=0/decimate=0/interlaced=0/bluray_compat=0/constrained_intra=0/bframes=8/b_pyramid=2/b_adapt=2/b_bias=0/direct=3/weightb=1/open_gop=0/weightp=2/keyint=250/keyint_min=23/scenecut=40/intra_refresh=0/rc=crf/mbtree=0/crf=18.0000/qcomp=0.60/qpmin=0/qpmax=69/qpstep=4/ip_ratio=1.30/pb_ratio=1.20/aq=3: 0.80
    Default : Да
    Forced : Нет
    Аудио #1
    Идентификатор : 2
    Формат : AC-3
    Формат/Информация : Audio Coding 3
    Коммерческое название : Dolby Digital
    Идентификатор кодека : A_AC3
    Продолжительность : 1 ч. 40 м.
    Вид битрейта : Постоянный
    Битрейт : 384 Кбит/сек
    Каналы : 6 каналов
    Channel layout : L R C LFE Ls Rs
    Частота : 48, 0 КГц
    Частота кадров : 31, 250 кадров/сек (1536 SPF)
    Битовая глубина : 16 бит
    Метод сжатия : С потерями
    Размер потока : 277 Мбайт (4%)
    Заголовок : Профессиональный многоголосый (BaibaKo.TV)
    Язык : Russian
    ServiceKind/String : Complete Main
    Default : Да
    Forced : Нет
    Аудио #2
    Идентификатор : 3
    Формат : AC-3
    Формат/Информация : Audio Coding 3
    Коммерческое название : Dolby Digital
    Идентификатор кодека : A_AC3
    Продолжительность : 1 ч. 41 м.
    Вид битрейта : Постоянный
    Битрейт : 384 Кбит/сек
    Каналы : 6 каналов
    Channel layout : L R C LFE Ls Rs
    Частота : 48, 0 КГц
    Частота кадров : 31, 250 кадров/сек (1536 SPF)
    Битовая глубина : 16 бит
    Метод сжатия : С потерями
    Размер потока : 279 Мбайт (4%)
    Язык : English
    ServiceKind/String : Complete Main
    Default : Нет
    Forced : Нет
    Текст #1
    Идентификатор : 4
    Формат : UTF-8
    Идентификатор кодека : S_TEXT/UTF8
    Идентификатор кодека/Информация : UTF-8 Plain Text
    Продолжительность : 1 ч. 35 м.
    Битрейт : 93 бит/сек
    ElementCount : 1917
    Размер потока : 65, 3 Кбайт (0%)
    Заголовок : Full
    Язык : English
    Default : Да
    Forced : Нет
    Текст #2
    Идентификатор : 5
    Формат : UTF-8
    Идентификатор кодека : S_TEXT/UTF8
    Идентификатор кодека/Информация : UTF-8 Plain Text
    Продолжительность : 1 ч. 35 м.
    Битрейт : 107 бит/сек
    ElementCount : 2115
    Размер потока : 75, 1 Кбайт (0%)
    Заголовок : SDH
    Язык : English
    Default : Нет
    Forced : Нет

    Скриншоты для ознакомления



    Все одноименные релизы в Клубе
    Время раздачи: 24/7 (до появления первых 3-5 скачавших)


    Онлайн видео Игра окончена, чувак!



    Игра окончена, чувак!/Game Over, Man! (2018) WEBRip [H.264/1080p] [MVO]
    Рейтинг →
     (голосов: 1, оценка 4/5, голосовать можно 1 раз )

    Другие торренты по теме:

  • Игра окончена, чувак! / Game Over, Man! (2018) WEBRip [MVO]
  • Игра окончена, чувак! / Game Over, Man! (2018) WEBRip [H.264 / 720p-LQ] [MVO]


    • Комментарии (0):

      Информация

      Информация

        Посетители, находящиеся в группе Гости, не могут оставлять комментарии в данной новости.

        ↓ Меню




        ↓ Опрос

        Вы добавили сайт в закладки?
        Да
        Нет


        Top 10 за месяц (Фильмы)