.
Авторизация | Регистрация
Хочешь лучшие торренты? Добавь свой email!
Добавить

Торрент скачать бесплатно

  • support: webmaster@btracker.club
» » 12-й человек / Den 12. mann (2017) BDRemux [H.264 / 1080p] [MVO] торрент скачать бесплатно


    12-й человек / Den 12. mann (2017) BDRemux [H.264 / 1080p] [MVO] торрент скачать бесплатно

    Опубликовал: fregat | Дата: 1-01-2019, 05:00 | .torrent скачали: 0

    12-й человек / Den 12. mann (2017) BDRemux [H.264 / 1080p] [MVO]Производство: Норвегия/Nordisk Film Production AS
    Жанр: Триллер, Драма, Военный
    Режиссер: Харольд Цварт

    Актеры
    Томас Гуллестад, Джонатан Риз Майерс, Мари Блокхус, Мадс Сьёгард Петтерсен, Вегар Хуль, Хокон Т. Нильсен, Эйрик Рисхольм Велле, Даниэль Фрикстад, Эрик Дирне, Александр Цварт

    Описание

    Группа бойцов норвежского сопротивления получает задание добраться до северо-западного норвежского побережья на судне Браттхольм и совершить диверсию на одной из немецких авиационных баз. Но миссия потерпела фиаско еще в море: судно было атаковано немецким кораблем и потоплено. Единственным человеком, которому удалось спастись, оказался Ян Болсруд. Ему удается добраться до берега и бежать в сторону шведской границы. Преследуемый гестапо, Болсруд ищет убежище в горах. Здесь его настигает снежная буря, он прячется в пещере, которая оказывается смертельной ловушкой.

    Дата мировой премьеры: 25 декабря 2017
    Дата российской премьеры: 24 апреля 2018
    Релиз от: Werecut
    Продолжительность: 02: 15: 51
    Качество видео: BDRemux
    Перевод: Многоголосый закадровый, профессиональный
    Субтитры: Русские, Английские
    Видео: AVC/H.264, 1920x1080, ~26, 7 Mbps
    Аудио 01: AC3, 2 ch, 192 Kbps - Русский (MVO, HDRezka Studio)
    Аудио 02: DTS-HD HRA, 6 ch, 2046 Kbps - Норвежский

    General
    Unique ID : 106485554640133659183104366349658394940 (0x501C5F306C0AA89D9B9CFAA64140913C)
    Complete name : F: The.12th.Man.2017.bdremuX.108Op.werecut.PROD.mkv
    Format : Matroska
    Format version : Version 4
    File size : 27.4 GiB
    Duration : 2 h 15 min
    Overall bit rate mode : Variable
    Overall bit rate : 28.9 Mb/s
    Movie name : The 12th Man 2017 OT werecut PROD.
    Encoded date : UTC 2018-12-31 01: 07: 13
    Writing application : mkvmerge v29.0.0 (\'Like It Or Not\') 64-bit
    Writing library : libebml v1.3.6 + libmatroska v1.4.9
    Video
    ID : 1
    Format : AVC
    Format/Info : Advanced Video Codec
    Format profile : High@L4.1
    Format settings : CABAC/4 Ref Frames
    Format settings, CABAC : Yes
    Format settings, ReFrames : 4 frames
    Codec ID : V_MPEG4/ISO/AVC
    Duration : 2 h 15 min
    Bit rate mode : Variable
    Bit rate : 26.7 Mb/s
    Maximum bit rate : 35.0 Mb/s
    Width : 1 920 pixels
    Height : 1 080 pixels
    Display aspect ratio : 16: 9
    Frame rate mode : Constant
    Frame rate : 24.000 FPS
    Color space : YUV
    Chroma subsampling : 4: 2: 0
    Bit depth : 8 bits
    Scan type : Progressive
    Bits/(Pixel*Frame) : 0.536
    Stream size : 25.3 GiB (92%)
    Language : English
    Default : Yes
    Forced : No
    Audio #1
    ID : 2
    Format : AC-3
    Format/Info : Audio Coding 3
    Commercial name : Dolby Digital
    Codec ID : A_AC3
    Duration : 2 h 15 min
    Bit rate mode : Constant
    Bit rate : 192 kb/s
    Channel(s) : 2 channels
    Channel layout : L R
    Sampling rate : 48.0 kHz
    Frame rate : 31.250 FPS (1536 SPF)
    Bit depth : 16 bits
    Compression mode : Lossy
    Stream size : 186 MiB (1%)
    Title : HDREZKA
    Language : Russian
    Service kind : Complete Main
    Default : Yes
    Forced : No
    Audio #2
    ID : 3
    Format : DTS XBR
    Format/Info : Digital Theater Systems
    Commercial name : DTS-HD High Resolution Audio
    Codec ID : A_DTS
    Duration : 2 h 15 min
    Bit rate mode : Constant
    Bit rate : 2 046 kb/s
    Channel(s) : 6 channels
    Channel layout : C L R Ls Rs LFE
    Sampling rate : 48.0 kHz
    Frame rate : 93.750 FPS (512 SPF)
    Bit depth : 24 bits
    Compression mode : Lossy
    Stream size : 1.94 GiB (7%)
    Language : Norwegian
    Default : No
    Forced : No
    Text #1
    ID : 4
    Format : UTF-8
    Codec ID : S_TEXT/UTF8
    Codec ID/Info : UTF-8 Plain Text
    Duration : 2 h 9 min
    Bit rate : 46 b/s
    Count of elements : 857
    Stream size : 44.2 KiB (0%)
    Language : Russian
    Default : No
    Forced : No
    Text #2
    ID : 5
    Format : UTF-8
    Codec ID : S_TEXT/UTF8
    Codec ID/Info : UTF-8 Plain Text
    Duration : 2 h 7 min
    Bit rate : 29 b/s
    Count of elements : 1039
    Stream size : 27.1 KiB (0%)
    Language : English
    Default : No
    Forced : No
    Menu
    00: 00: 00.000 : en: 1
    00: 04: 32.439 : en: 2
    00: 11: 15.174 : en: 3
    00: 18: 42.913 : en: 4
    00: 21: 40.632 : en: 5
    00: 27: 22.348 : en: 6
    00: 32: 36.119 : en: 7
    00: 37: 47.430 : en: 8
    00: 45: 13.917 : en: 9
    00: 50: 10.712 : en: 10
    00: 56: 16.702 : en: 11
    01: 00: 34.750 : en: 12
    01: 05: 27.125 : en: 13
    01: 09: 24.110 : en: 14
    01: 14: 36.921 : en: 15
    01: 20: 28.314 : en: 16

    Скриншоты для ознакомления



    Все одноименные релизы в Клубе
    Время раздачи: 24/7 (до появления первых 3-5 скачавших)


    Онлайн видео 12-й человек



    12-й человек/Den 12. mann (2017) BDRemux [H.264/1080p] [MVO]
    Рейтинг →
     (голосов: 1, оценка 4/5, голосовать можно 1 раз )

    Другие торренты по теме:

  • Довольно добрый человек / En ganske snill mann (2010) DVDRip [H.264]
  • 12-й человек / Den 12. mann (2017) BDRip [H.264 / 1080p] [MVO] [PR]
  • 12-й человек / Den 12. mann (2017) HDRip [MVO]
  • 12-й человек / Den 12. mann (2017) HDRip [MVO]
  • 12-й человек / Den 12. mann (2017) AC3 5.1 [hand made]


    • Комментарии (0):

      Информация

      Информация

        Посетители, находящиеся в группе Гости, не могут оставлять комментарии в данной новости.

        ↓ Меню




        ↓ Опрос

        Вы добавили сайт в закладки?
        Да
        Нет


        Top 10 за месяц (Фильмы)