.
Авторизация | Регистрация
Хочешь лучшие торренты? Добавь свой email!
Добавить

Торрент скачать бесплатно

  • support: webmaster@btracker.club
» » Черное зеркало: Брандашмыг / Black Mirror: Bandersnatch (2018) WEBRip [H.264 / 1080p-LQ] [MVO] торрент скачать бесплатно


    Черное зеркало: Брандашмыг / Black Mirror: Bandersnatch (2018) WEBRip [H.264 / 1080p-LQ] [MVO] торрент скачать бесплатно

    Опубликовал: fregat | Дата: 1-01-2019, 05:00 | .torrent скачали: 0

    Черное зеркало: Брандашмыг / Black Mirror: Bandersnatch (2018) WEBRip [H.264 / 1080p-LQ] [MVO]Производство: США/House Of Tomorrow, Netflix
    Жанр: Фантастика, триллер, драма, детектив
    Режиссер: Дэвид Слэйд

    Актеры
    Финн Уайтхед, Крэйг Паркинсон, Элис Лоу, Азим Чаудхри, Уилл Поултер, Таллула Роуз Хэддон, Катриона Нокс, Пол Брэдли, Джонатан Арис, А.Дж. Хотон

    Описание

    1984 год. Молодой программист Стефан с многолетним чувством вины за смерть матери пытается написать компьютерную игру по фантастическому роману. Вскоре реальность искажается, создавая невообразимую путаницу в и без того нездоровом сознании парня.

    Дата мировой премьеры: 28 декабря 2018
    Дата российской премьеры: неизвестна
    Продолжительность: 01: 33: 12
    Качество видео: WEBRip
    Перевод: Многоголосый закадровый, профессиональный (Profix Media )
    Субтитры: Русские, английские
    Видео: AVC/H.264, 1920x1080, ~4640 Kbps
    Аудио #1: AC3, 2 ch, 192 Kbps | Русский (MVO, Profix Media)
    Аудио #2: E-AC3, 6 ch, 640 Kbps | Английский

    Общее
    Уникальный идентификатор : 144236747869329486881877761810279495963 (0x6C82FCB7D8689304EAE762832700F91B)
    Полное имя : C: UsersUserDesktopNNMClubBlack.Mirror.2018.Bandersnatch.1080p.WEBRip.mkv
    Формат : Matroska
    Версия формата : Version 4
    Размер файла : 3, 54 Гбайт
    Продолжительность : 1 ч. 33 м.
    Режим общего битрейта : Переменный
    Общий поток : 5437 Кбит/сек
    Название фильма : Чёрное зеркало | Black Mirror (Bandersnatch) - Release by whip93
    Дата кодирования : UTC 2018-12-31 05: 39: 40
    Программа кодирования : mkvmerge v28.0.0 (\'Voice In My Head\') 64-bit
    Библиотека кодирования : libebml v1.3.6 + libmatroska v1.4.9
    Видео
    Идентификатор : 1
    Формат : AVC
    Формат/Информация : Advanced Video Codec
    Профиль формата : Main@L4
    Настройки формата : CABAC/3 Ref Frames
    Параметр CABAC формата : Да
    Параметр RefFrames формата : 3 кадра
    Идентификатор кодека : V_MPEG4/ISO/AVC
    Продолжительность : 1 ч. 33 м.
    Вид битрейта : Переменный
    Битрейт : 4640 Кбит/сек
    Максимальный битрейт : 6960 Кбит/сек
    Ширина : 1920 пикселей
    Высота : 1080 пикселей
    Соотношение сторон : 16: 9
    Режим частоты кадров : Постоянный
    Частота кадров : 25, 000 кадров/сек
    Цветовое пространство : YUV
    Субдискретизация насыщенности : 4: 2: 0
    Битовая глубина : 8 бит
    Тип развёртки : Прогрессивная
    Бит/(Пиксели*Кадры) : 0.090
    Размер потока : 3, 00 Гбайт (85%)
    Заголовок : DEFLATE\'s WEB-DL
    Библиотека кодирования : x264 core 148 r2715 7e75228
    Настройки программы : cabac=1/ref=3/deblock=1: 0: 0/analyse=0x1: 0x111/me=umh/subme=10/psy=1/psy_rd=1.00: 0.00/mixed_ref=1/me_range=24/chroma_me=1/trellis=2/8x8dct=0/cqm=0/deadzone=21, 11/fast_pskip=1/chroma_qp_offset=-2/threads=8/lookahead_threads=1/sliced_threads=0/nr=0/decimate=1/interlaced=0/bluray_compat=0/stitchable=1/constrained_intra=0/bframes=2/b_pyramid=0/b_adapt=2/b_bias=0/direct=3/weightb=1/open_gop=0/weightp=2/keyint=250/keyint_min=25/scenecut=0/intra_refresh=0/rc_lookahead=50/rc=2pass/mbtree=1/bitrate=4640/ratetol=1.0/qcomp=0.50/qpmin=6/qpmax=51/qpstep=4/cplxblur=20.0/qblur=0.5/vbv_maxrate=6960/vbv_bufsize=9280/nal_hrd=vbr/filler=0/ip_ratio=1.40/aq=1: 1.00
    Язык : English
    Default : Да
    Forced : Нет
    Аудио #1
    Идентификатор : 2
    Формат : AC-3
    Формат/Информация : Audio Coding 3
    Коммерческое название : Dolby Digital
    Идентификатор кодека : A_AC3
    Продолжительность : 1 ч. 33 м.
    Вид битрейта : Постоянный
    Битрейт : 192 Кбит/сек
    Каналы : 2 канала
    Channel layout : L R
    Частота : 48, 0 КГц
    Частота кадров : 31, 250 кадров/сек (1536 SPF)
    Битовая глубина : 16 бит
    Метод сжатия : С потерями
    Размер потока : 128 Мбайт (4%)
    Заголовок : MVO (Profix Media)
    Язык : Russian
    ServiceKind/String : Complete Main
    Default : Да
    Forced : Нет
    Аудио #2
    Идентификатор : 3
    Формат : E-AC-3
    Формат/Информация : Enhanced AC-3
    Коммерческое название : Dolby Digital Plus
    Идентификатор кодека : A_EAC3
    Продолжительность : 1 ч. 33 м.
    Вид битрейта : Постоянный
    Битрейт : 640 Кбит/сек
    Каналы : 6 каналов
    Channel layout : L R C LFE Ls Rs
    Частота : 48, 0 КГц
    Частота кадров : 31, 250 кадров/сек (1536 SPF)
    Метод сжатия : С потерями
    Размер потока : 427 Мбайт (12%)
    Заголовок : Original
    Язык : English
    ServiceKind/String : Complete Main
    Default : Нет
    Forced : Нет
    Текст #1
    Идентификатор : 4
    Формат : UTF-8
    Идентификатор кодека : S_TEXT/UTF8
    Идентификатор кодека/Информация : UTF-8 Plain Text
    Продолжительность : 1 ч. 32 м.
    Битрейт : 84 бит/сек
    ElementCount : 1052
    Размер потока : 56, 9 Кбайт (0%)
    Заголовок : Netflix
    Язык : Russian
    Default : Нет
    Forced : Нет
    Текст #2
    Идентификатор : 5
    Формат : UTF-8
    Идентификатор кодека : S_TEXT/UTF8
    Идентификатор кодека/Информация : UTF-8 Plain Text
    Продолжительность : 1 ч. 29 м.
    Битрейт : 50 бит/сек
    ElementCount : 938
    Размер потока : 33, 1 Кбайт (0%)
    Заголовок : Original (SDH)
    Язык : English
    Default : Нет
    Forced : Нет

    Скриншоты для ознакомления



    Все одноименные релизы в Клубе
    Время раздачи: 24/7 (до появления первых 3-5 скачавших)


    Онлайн видео Черное зеркало: Брандашмыг



    Черное зеркало: Брандашмыг/Black Mirror: Bandersnatch (2018) WEBRip [H.264/1080p-LQ] [MVO]
    Рейтинг →
     (голосов: 1, оценка 5/5, голосовать можно 1 раз )

    Другие торренты по теме:

  • Черное зеркало / Black Mirror (2014) HDTVRip (сезон 3, серии 1 из ) BaibaKo (обновляемая)
  • Черное зеркало / Black Mirror (2014) HDTVRip [H.264 / 720p-LQ] (Сезон 3, эпизод 1 из ) (Кубик в Кубе) (обновляемая)
  • Черное зеркало с Евгением Киселевым (12.02.2016) SATRip [UKR / RUS]
  • Черное зеркало / Black Mirror (2016) WEBRip [H.264 / 720p-LQ] (сезон 3, серии 1 из 6) NewStudio (обновляемая)
  • Черное зеркало / Black Mirror (2014, 2016) HDTVRip / WEBRip (сезон 3, серии 0-6 из 6) BaibaKo
  • Black Mirror 2 / Черное зеркало 2 (2010) [Ru] (1.01) License GOG
  • Черное зеркало / Black Mirror (2011) WEB-DLRip 1080p [Сезон 01] (BaibaKo)
  • Black Mirror 3: Final Fear / Черное зеркало 3 (2011) [Ru / En] (1.01) License GOG


    • Комментарии (0):

      Информация

      Информация

        Посетители, находящиеся в группе Гости, не могут оставлять комментарии в данной новости.

        ↓ Меню




        ↓ Опрос

        Вы добавили сайт в закладки?
        Да
        Нет


        Top 10 за месяц (Фильмы)