.
Авторизация | Регистрация
Хочешь лучшие торренты? Добавь свой email!
Добавить

Торрент скачать бесплатно

  • support: webmaster@btracker.club
» » Вы умрете, или мы вернем вам деньги / Dead in a Week: Or Your Money Back (2018) BDRemux [H.264 / 1080p] торрент скачать бесплатно


    Вы умрете, или мы вернем вам деньги / Dead in a Week: Or Your Money Back (2018) BDRemux [H.264 / 1080p] торрент скачать бесплатно

    Опубликовал: fregat | Дата: 1-01-2019, 05:00 | .torrent скачали: 0

    Вы умрете, или мы вернем вам деньги / Dead in a Week: Or Your Money Back (2018) BDRemux [H.264 / 1080p]Производство: Великобритания/Guild of Assassins, Rather Good Films
    Жанр: Боевик, Комедия
    Режиссер: Том Эдмундс
    Продюсер: Ник Ашдон, Дэниэл-Конрад Купер, Джина Картер

    Актеры
    Кристофер Экклстон, Анейрин Барнард, Том Уилкинсон, Фрейя Мавор, Гетин Энтони, Найджел Линдсэй, Мэрион Бэйли, Велибор Топич, Марсия Уоррен, Эмма Кэмпбелл-Джонс

    Описание

    После очередной неудавшейся попытки свести счеты с жизнью незадачливый писатель Уильям обращается к услугам наемного убийцы Лесли — неумолимого ангела смерти из Гильдии Убийц — организации, готовой оказать помощь всякому, кто нуждается в быстром и безболезненном уходе из жизни. У Лесли доброе сердце, но нетвердая рука. Начальство мечтает отправить его на пенсию, а подвернувшийся контракт — единственный шанс отсрочить неизбежное. Однако в дело вмешивается случай. Уильяму вдруг улыбнулась судьба: он влюбляется…

    Возраст: 16+ (зрителям, достигшим 16 лет)
    Дата мировой премьеры: 27 июня 2018
    Дата российской премьеры: 29 ноября 2018
    Релиз от: funtden
    Продолжительность: 01: 30: 14
    Качество видео: BDRemux
    Перевод: Дублированный (iTunes)
    Субтитры: Английские
    Видео: AVC/H.264, 1920x1080, ~22, 0 Mbps
    Аудио 1 : AC3, 6 ch, 384 Kbps l Русский (DUB)
    Аудио 2 : DTS-HD MA, 6 ch, 1860 Kbps l Английский (Оригинал)

    General
    Unique ID : 158642306315298860074450798650013368660 (0x77596595DC19F63AF45958257DADC154)
    Complete name : /Users/imac/Download-BIGBOY/Dead.in.a.Week.Or.Your.Money.Back.BDREMUX.1080p.mkv
    Format : Matroska
    Format version : Version 4
    File size : 15.3 GiB
    Duration : 1h 30mn
    Overall bit rate mode : Variable
    Overall bit rate : 24.2 Mbps
    Movie name : Dead.in.a.Week.Or.Your.Money.Back.2018.BDREMUX 1080p.funtden
    Encoded date : UTC 2018-12-30 15: 12: 54
    Writing application : mkvmerge v29.0.0 (\'Like It Or Not\') 64-bit
    Writing library : libebml v1.3.6 + libmatroska v1.4.9
    Cover : Yes
    Attachments : cover_land.jpg/small_cover.jpg/small_cover_land.jpg/cover.jpg
    Video
    ID : 1
    Format : AVC
    Format/Info : Advanced Video Codec
    Format profile : High@L4.1
    Format settings : CABAC/4 Ref Frames
    Format settings, CABAC : Yes
    Format settings, ReFrames : 4 frames
    Codec ID : V_MPEG4/ISO/AVC
    Duration : 1h 30mn
    Bit rate mode : Variable
    Bit rate : 22.0 Mbps
    Maximum bit rate : 35.0 Mbps
    Width : 1 920 pixels
    Height : 1 080 pixels
    Display aspect ratio : 16: 9
    Frame rate mode : Constant
    Frame rate : 24.000 fps
    Standard : NTSC
    Color space : YUV
    Chroma subsampling : 4: 2: 0
    Bit depth : 8 bits
    Scan type : Progressive
    Bits/(Pixel*Frame) : 0.442
    Stream size : 13.9 GiB (91%)
    Title : Dead.in.a.Week.Or.Your.Money.Back.2018.BDREMUX 1080p.funtden
    Language : English
    Default : No
    Forced : No
    Color range : Limited
    Color primaries : BT.709
    Transfer characteristics : BT.709
    Matrix coefficients : BT.709
    Audio #1
    ID : 2
    Format : AC-3
    Format/Info : Audio Coding 3
    Commercial name : Dolby Digital
    Codec ID : A_AC3
    Duration : 1h 30mn
    Bit rate mode : Constant
    Bit rate : 384 Kbps
    Channel(s) : 6 channels
    Channel layout : L R C LFE Ls Rs
    Sampling rate : 48.0 KHz
    Frame rate : 31.250 fps (1536 SPF)
    Bit depth : 16 bits
    Compression mode : Lossy
    Stream size : 248 MiB (2%)
    Title : DUB iTunes
    Language : Russian
    Service kind : Complete Main
    Default : Yes
    Forced : Yes
    Audio #2
    ID : 3
    Format : DTS XLL
    Format/Info : Digital Theater Systems
    Commercial name : DTS-HD Master Audio
    Codec ID : A_DTS
    Duration : 1h 30mn
    Bit rate mode : Variable
    Bit rate : 1 860 Kbps
    Channel(s) : 6 channels
    Channel layout : C L R Ls Rs LFE
    Sampling rate : 48.0 KHz
    Frame rate : 93.750 fps (512 SPF)
    Bit depth : 16 bits
    Compression mode : Lossless
    Stream size : 1.17 GiB (8%)
    Title : Original (Eng)
    Language : English
    Default : No
    Forced : No
    Text
    ID : 4
    Format : UTF-8
    Codec ID : S_TEXT/UTF8
    Codec ID/Info : UTF-8 Plain Text
    Duration : 1h 28mn
    Bit rate : 62 bps
    Count of elements : 1649
    Stream size : 40.7 KiB (0%)
    Title : Full
    Language : English
    Default : No
    Forced : No
    Menu
    00: 00: 00.000 : en: Chapter 01
    00: 07: 10.458 : en: Chapter 02
    00: 15: 31.416 : en: Chapter 03
    00: 22: 29.583 : en: Chapter 04
    00: 30: 59.291 : en: Chapter 05
    00: 37: 58.625 : en: Chapter 06
    00: 45: 24.625 : en: Chapter 07
    00: 54: 32.083 : en: Chapter 08
    01: 00: 05.416 : en: Chapter 09
    01: 09: 17.041 : en: Chapter 10
    01: 15: 42.208 : en: Chapter 11
    01: 22: 34.458 : en: Chapter 12

    Скриншоты для ознакомления



    Все одноименные релизы в Клубе
    Время раздачи: 24/7 (круглосуточно)


    Онлайн видео Вы умрете, или мы вернем вам деньги



    Вы умрете, или мы вернем вам деньги/Dead in a Week: Or Your Money Back (2018) BDRemux [H.264/1080p]
    Рейтинг →
     (голосов: 1, оценка 3/5, голосовать можно 1 раз )

    Другие торренты по теме:

  • Вы умрете, или мы вернем вам деньги / Dead in a Week: Or Your Money Back (2018) WEBRip [MVO] [AD]
  • Вы умрете, или мы вернем вам деньги / Dead in a Week: Or Your Money Back (2018) BDRip [H.264 / 720p]
  • Вы умрете, или мы вернем вам деньги / Dead in a Week: Or Your Money Back (2018) BDRip
  • Вы умрете, или мы вернем вам деньги / Dead in a Week: Or Your Money Back (2018) BDRip [H.264 / 1080p]
  • Вы умрете, или мы вернем вам деньги / Dead in a Week: Or Your Money Back (2018) BDRip [H.264 / 1080p-LQ]
  • Вы умрете, или мы вернем вам деньги / Dead in a Week: Or Your Money Back (2018) BDRip [1080p] ATV
  • Вы умрете, или мы вернем вам деньги / Dead in a Week: Or Your Money Back (2018) BDRip [720p] ATV


    • Комментарии (0):

      Информация

      Информация

        Посетители, находящиеся в группе Гости, не могут оставлять комментарии в данной новости.

        ↓ Меню




        ↓ Опрос

        Вы добавили сайт в закладки?
        Да
        Нет


        Top 10 за месяц (Фильмы)