.
Авторизация | Регистрация
Хочешь лучшие торренты? Добавь свой email!
Добавить

Торрент скачать бесплатно

  • support: webmaster@btracker.club
» » Вкус счастья (2018) WEB-DLRip (серии 1-4 из 4) торрент скачать бесплатно


    Вкус счастья (2018) WEB-DLRip (серии 1-4 из 4) торрент скачать бесплатно

    Опубликовал: fregat | Дата: 31-12-2018, 05:00 | .torrent скачали: 4

    Вкус счастья (2018) WEB-DLRip (серии 1-4 из 4)Производство: Украина/Star Media
    Жанр: мелодрама
    Режиссер: Александр Будённый

    Актеры
    Клавдия Дрозд, Анна Кошмал, Александр Пашков, Владимир Лилицкий, Михаил Химичев, Сталина Лагошняк, Алексей Смолка, Ксения Мишина, Влад Никитюк и др.

    Описание

    У Леры нет никого ближе и роднее, чем младшая сестра Наташа, которую она с 18 лет воспитывала сама. Чтобы сестра ни в чем не испытывала недостатка, Лера отказалась от своей мечты и не поступила в медицинский институт. Сестры живут душа в душу, пока однажды младшая не едет в столицу на поиски лучшей жизни. А потом и вообще девушкам приходится столкнуться друг с другом в борьбе за сердце одного мужчины. Но, к счастью, обоим хватает и ума, и сестринской любви, чтобы избежать полного разрыва. Лера уходит в сторону, чтобы Наташа была счастлива. И судьба награждает ее новой любовью...
    Дата мировой премьеры: 30 декабря 2018
    Релиз от: Алехаndr
    Продолжительность: ~00: 45: 00 серия
    Качество видео: WEB-DLRip
    Язык озвучки: русский
    Видео: Xvid, 720x400 (16: 9), ~1645 Kbps
    Аудио: AC3, 2 ch, 192 Kbps

    Общее
    Полное имя : D: Вкус счастья (2018).by.АлехаndrСерия 1.by.Алехаndr.avi
    Формат : AVI
    Формат/Информация : Audio Video Interleave
    Размер файла : 599 Мбайт
    Продолжительность : 45 м. 24 с.
    Общий поток : 1846 Кбит/сек
    Программа кодирования : Lavf58.12.100
    Видео
    Идентификатор : 0
    Формат : xvid
    Идентификатор кодека : xvid
    Продолжительность : 45 м. 23 с.
    Битрейт : 1643 Кбит/сек
    Ширина : 720 пикселей
    Высота : 400 пикселей
    Соотношение сторон : 16: 9
    Частота кадров : 25, 000 кадров/сек
    Тип развёртки : Прогрессивная
    Бит/(Пиксели*Кадры) : 0.228
    Размер потока : 534 Мбайт (89%)
    Аудио
    Идентификатор : 1
    Формат : AC-3
    Формат/Информация : Audio Coding 3
    Коммерческое название : Dolby Digital
    Идентификатор кодека : 2000
    Продолжительность : 45 м. 24 с.
    Вид битрейта : Постоянный
    Битрейт : 192 Кбит/сек
    Каналы : 2 канала
    Channel layout : L R
    Частота : 48, 0 КГц
    Частота кадров : 31, 250 кадров/сек (1536 SPF)
    Битовая глубина : 16 бит
    Метод сжатия : С потерями
    Размер потока : 62, 3 Мбайт (10%)
    Выравнивание : Соединение по промежуткам
    Продолжительность промежутка : 32 мс. (0, 80 видеокадр)
    ServiceKind/String : Complete Main

    Скриншоты для ознакомления



    Все одноименные релизы в Клубе
    Время раздачи: 24/7 (круглосуточно) (до появления первых 3-5 скачавших)


    Онлайн видео Вкус счастья (2018) WEB



    Вкус счастья (2018) WEB-DLRip (серии 1-4 из 4)
    Рейтинг →
     (голосов: 1, оценка 5/5, голосовать можно 1 раз )

    Другие торренты по теме:

  • Камин Мохаммади | Bella Figura, или Итальянская философия счастья. Как я переехала в Италию, ощутила вкус жизни и влюбилась (2018) [FB2]


    • Комментарии (0):

      Информация

      Информация

        Посетители, находящиеся в группе Гости, не могут оставлять комментарии в данной новости.

        ↓ Меню




        ↓ Опрос

        Вы добавили сайт в закладки?
        Да
        Нет


        Top 10 за месяц (Фильмы)