.
Авторизация | Регистрация

Торрент скачать бесплатно

  • support: webmaster@btracker.club
» » Квартирник на НТВ у Маргулиса. Евгений Маргулис (12.29.2018) WEBRip [H.264 / 1080p-LQ] торрент скачать бесплатно


    Квартирник на НТВ у Маргулиса. Евгений Маргулис (12.29.2018) WEBRip [H.264 / 1080p-LQ] торрент скачать бесплатно

    Дата: 31-12-2018, 05:00 | .torrent скачали: 11

    Квартирник на НТВ у Маргулиса. Евгений Маргулис (12.29.2018) WEBRip [H.264 / 1080p-LQ]Производство: НТВ
    Жанр: Концерт

    Описание

    В новом специальном выпуске самого неформатного музыкального шоу страны впервые место приглашенного гостя занял сам Евгений Маргулис! Именитый ведущий и талантливый музыкант исполнил свои популярные хиты — Зато мой друг лучше всех играет блюз, Шанхай блюз, а также представил свой новый зажигательный альбом, который никого не оставит равнодушным. Кроме того, блюзмен поделился интересными воспоминаниями из жизни и творчества. А ведущим программы в этот вечер стал Александр Пушной — музыкант, певец, актер, телеведущий, мультиинструменталист, композитор и близкий друг Евгения Маргулиса.
    Продолжительность: 01: 16: 37
    Качество видео: WEBRip
    Субтитры: Отсутствуют
    Видео: AVC/H.264, 1920x1080 (16: 9), ~2010 Kbps
    Аудио: AC3, 2 ch, 192 Kbps

    Общее
    Уникальный идентификатор : 261073661881872914225584829185354996320 (0xC468F553DD2DAB49E0C6856EAD819A60)
    Полное имя : D: 1Квартирник НТВ у Маргулиса (Евгений Маргулис).mkv
    Формат : Matroska
    Версия формата : Version 4
    Размер файла : 1, 18 Гбайт
    Продолжительность : 1 ч. 16 м.
    Общий поток : 2202 Кбит/сек
    Дата кодирования : UTC 2018-12-30 14: 37: 41
    Программа кодирования : mkvmerge v29.0.0 (\'Like It Or Not\') 32-bit
    Библиотека кодирования : libebml v1.3.6 + libmatroska v1.4.9/Lavf57.71.100
    Видео
    Идентификатор : 1
    Формат : AVC
    Формат/Информация : Advanced Video Codec
    Профиль формата : High@L4
    Настройки формата : CABAC/3 Ref Frames
    Параметр CABAC формата : Да
    Параметр RefFrames формата : 3 кадра
    Идентификатор кодека : V_MPEG4/ISO/AVC
    Продолжительность : 1 ч. 16 м.
    Битрейт : 2008 Кбит/сек
    Ширина : 1920 пикселей
    Высота : 1080 пикселей
    Соотношение сторон : 16: 9
    Режим частоты кадров : Постоянный
    Частота кадров : 25, 000 кадров/сек
    Цветовое пространство : YUV
    Субдискретизация насыщенности : 4: 2: 0
    Битовая глубина : 8 бит
    Тип развёртки : Прогрессивная
    Бит/(Пиксели*Кадры) : 0.039
    Размер потока : 1, 07 Гбайт (91%)
    Default : Да
    Forced : Нет
    Цветовой диапазон : Limited
    Основные цвета : BT.709
    Характеристики трансфера : BT.709
    Коэффициенты матрицы : BT.709
    Аудио
    Идентификатор : 2
    Формат : AC-3
    Формат/Информация : Audio Coding 3
    Коммерческое название : Dolby Digital
    Идентификатор кодека : A_AC3
    Продолжительность : 1 ч. 16 м.
    Вид битрейта : Постоянный
    Битрейт : 192 Кбит/сек
    Каналы : 2 канала
    Channel layout : L R
    Частота : 48, 0 КГц
    Частота кадров : 31, 250 кадров/сек (1536 SPF)
    Битовая глубина : 16 бит
    Метод сжатия : С потерями
    Размер потока : 105 Мбайт (9%)
    ServiceKind/String : Complete Main
    Default : Да
    Forced : Нет

    Скриншоты для ознакомления



    Все релизы Квартирник на НТВ у Маргулиса в Клубе
    Время раздачи: 24/7 (круглосуточно) (до появления первых 3-5 скачавших)


    Онлайн видео Квартирник на НТВ у Маргулиса. Евгений Маргулис (12.29.2018) WEBRip [H.264



    Квартирник на НТВ у Маргулиса. Евгений Маргулис (12.29.2018) WEBRip [H.264/1080p-LQ]
    Рейтинг →
     (голосов: 1, оценка 3/5, голосовать можно 1 раз )

    Другие торренты по теме:

  • Квартирник у Маргулиса. Новогодний квартирник. Часть 2 (2016) WEBRip скачать через торрент бесплатно
  • Квартирник у Маргулиса. Новогодний квартирник. Часть 1 (2016) WEBRip скачать через торрент бесплатно
  • Квартирник у Маргулиса - Новогодний квартирник (две части) (2015) DVBRip
  • Квартирник у Маргулиса - ЧайФ (2015) DVBRip скачать через торрент бесплатно
  • Квартирник у Маргулиса - Несчастный Случай (2015) DVBRip скачать через торрент бесплатно
  • Квартирник у Маргулиса - СерьГа (2015) DVBRip скачать через торрент бесплатно
  • Квартирник у Маргулиса - Крематорий (2015) DVBRip скачать через торрент бесплатно
  • Квартирник у Маргулиса. 5 выпуск. Чиж (2015) WEBRip скачать через торрент бесплатно


    • Комментарии (0):

      Информация

      Информация

        Посетители, находящиеся в группе Гости, не могут оставлять комментарии в данной новости.

        ↓ Меню




        ↓ Опрос

        Вы добавили сайт в закладки?
        Да
        Нет


        Top 10 за месяц (Фильмы)