.
Авторизация | Регистрация
Хочешь лучшие торренты? Добавь свой email!
Добавить

Торрент скачать бесплатно

  • support: webmaster@btracker.club
» » Достать Санту / Get Santa (2014) BDRip [H.264] торрент скачать бесплатно


    Достать Санту / Get Santa (2014) BDRip [H.264] торрент скачать бесплатно

    Опубликовал: fregat | Дата: 31-12-2018, 05:00 | .torrent скачали: 0

    Достать Санту / Get Santa (2014) BDRip [H.264]Производство: США, Великобритания/Film i Väst, Scott Free Productions
    Жанр: Комедия, семейный
    Режиссер: Кристофер Смит

    Актеры
    Джим Бродбент, Рейф Сполл, Кит Коннор, Юэн Бремнер, Уорвик Дэвис, Стивен Грэм, Джоэнна Скэнлэн, Джоди Уиттакер, Нонсо Анози, Мэтт Кинг

    Описание

    Отец и сын обнаруживают в своём гараже Санта-Клауса, потерпевшего крушение в результате неудачного перелёта и теперь скрывающегося от полиции. Перед героями встаёт самая ответственная задача на свете: спасти Рождество. Для этого им придется пройти сквозь огонь, воду и медные трубы: пуститься на поиски оленя Рудольфа, совершить путешествие в далёкую Лапландию, наладить отношения с группой эльфов и, наконец, вызволить Санту из-за решётки.

    Рейтинг MPAA: PG (рекомендуется присутствие родителей)
    Продолжительность: 01: 42: 47
    Качество видео: BDRip (AVC)
    Перевод: Многоголосый закадровый, профессиональный (СВ Студия)
    Субтитры: Русские (Full), английские (Full)
    Видео: AVC/H.264, 1024x426, ~2000 Kbps
    Аудио #1: AC3, 6 ch, 448 Kbps - Русский
    Аудио #2: AC3, 6 ch, 448 Kbps - Английский

    Общее
    Уникальный идентификатор : 179731454100386117264726671180258370195 (0x873704D940CBC41DAB9EAD8CE0106293)
    Полное имя : E: NNMДостать СантуDostat Santy 2014 BDRip-AVC.mkv
    Формат : Matroska
    Версия формата : Version 2
    Размер файла : 2, 08 Гбайт
    Продолжительность : 1 ч. 42 м.
    Общий поток : 2895 Кбит/сек
    Дата кодирования : UTC 2018-12-28 13: 08: 26
    Программа кодирования : mkvmerge v7.8.0 (\'River Man\') 32bit built on Apr 3 2015 12: 11: 22
    Библиотека кодирования : libebml v1.3.1 + libmatroska v1.4.2
    Видео
    Идентификатор : 1
    Формат : AVC
    Формат/Информация : Advanced Video Codec
    Профиль формата : High@L4.1
    Настройки формата : CABAC/12 Ref Frames
    Параметр CABAC формата : Да
    Параметр RefFrames формата : 12 кадров
    Идентификатор кодека : V_MPEG4/ISO/AVC
    Продолжительность : 1 ч. 42 м.
    Битрейт : 2000 Кбит/сек
    Ширина : 1024 пикселя
    Высота : 426 пикселей
    Соотношение сторон : 2, 40: 1
    Режим частоты кадров : Постоянный
    Частота кадров : 23, 976 (24000/1001) кадра/сек
    Цветовое пространство : YUV
    Субдискретизация насыщенности : 4: 2: 0
    Битовая глубина : 8 бит
    Тип развёртки : Прогрессивная
    Бит/(Пиксели*Кадры) : 0.191
    Размер потока : 1, 39 Гбайт (67%)
    Библиотека кодирования : x264 core 152 r2851 ba24899
    Настройки программы : cabac=1/ref=12/deblock=1: -3: -2/analyse=0x3: 0x113/me=umh/subme=10/psy=1/psy_rd=1.00: 0.10/mixed_ref=1/me_range=32/chroma_me=1/trellis=2/8x8dct=1/cqm=0/deadzone=21, 11/fast_pskip=0/chroma_qp_offset=-3/threads=6/lookahead_threads=1/sliced_threads=0/nr=0/decimate=0/interlaced=0/bluray_compat=0/constrained_intra=0/bframes=16/b_pyramid=2/b_adapt=2/b_bias=0/direct=3/weightb=1/open_gop=0/weightp=2/keyint=240/keyint_min=23/scenecut=40/intra_refresh=0/rc=2pass/mbtree=0/bitrate=2000/ratetol=1.0/qcomp=0.60/qpmin=0/qpmax=69/qpstep=4/cplxblur=20.0/qblur=0.5/ip_ratio=1.40/pb_ratio=1.30/aq=3: 1.00
    Язык : English
    Default : Да
    Forced : Нет
    Цветовой диапазон : Limited
    Основные цвета : BT.709
    Характеристики трансфера : BT.709
    Коэффициенты матрицы : BT.709
    Аудио #1
    Идентификатор : 2
    Формат : AC-3
    Формат/Информация : Audio Coding 3
    Идентификатор кодека : A_AC3
    Продолжительность : 1 ч. 42 м.
    Вид битрейта : Постоянный
    Битрейт : 448 Кбит/сек
    Каналы : 6 каналов
    Расположение каналов : Front: L C R, Side: L R, LFE
    Частота : 48, 0 КГц
    Частота кадров : 31, 250 кадров/сек (1536 SPF)
    Битовая глубина : 16 бит
    Метод сжатия : С потерями
    Размер потока : 329 Мбайт (15%)
    Заголовок : Профессиональный многоголосый
    Язык : Russian
    ServiceKind/String : Complete Main
    Default : Да
    Forced : Нет
    Аудио #2
    Идентификатор : 3
    Формат : AC-3
    Формат/Информация : Audio Coding 3
    Идентификатор кодека : A_AC3
    Продолжительность : 1 ч. 42 м.
    Вид битрейта : Постоянный
    Битрейт : 448 Кбит/сек
    Каналы : 6 каналов
    Расположение каналов : Front: L C R, Side: L R, LFE
    Частота : 48, 0 КГц
    Частота кадров : 31, 250 кадров/сек (1536 SPF)
    Битовая глубина : 16 бит
    Метод сжатия : С потерями
    Размер потока : 329 Мбайт (15%)
    Заголовок : Оригинал
    Язык : English
    ServiceKind/String : Complete Main
    Default : Нет
    Forced : Нет
    Текст #1
    Идентификатор : 4
    Формат : UTF-8
    Идентификатор кодека : S_TEXT/UTF8
    Идентификатор кодека/Информация : UTF-8 Plain Text
    Язык : Russian
    Default : Нет
    Forced : Нет
    Текст #2
    Идентификатор : 5
    Формат : UTF-8
    Идентификатор кодека : S_TEXT/UTF8
    Идентификатор кодека/Информация : UTF-8 Plain Text
    Язык : English
    Default : Нет
    Forced : Нет
    Меню
    00: 00: 00.000 : en: CHAPTER01
    00: 08: 56.577 : en: CHAPTER02
    00: 17: 25.377 : en: CHAPTER03
    00: 27: 40.742 : en: CHAPTER04
    00: 35: 51.691 : en: CHAPTER05
    00: 45: 46.577 : en: CHAPTER06
    00: 54: 04.115 : en: CHAPTER07
    01: 04: 21.440 : en: CHAPTER08
    01: 12: 16.582 : en: CHAPTER09
    01: 20: 32.118 : en: CHAPTER10
    01: 32: 39.011 : en: CHAPTER11
    01: 38: 18.601 : en: CHAPTER12

    Скриншоты для ознакомления



    Все одноименные релизы в Клубе Время раздачи: 24/7 (до появления первых 3-5 скачавших)


    Онлайн видео Достать Санту



    Достать Санту/Get Santa (2014) BDRip [H.264]
    Рейтинг →
     (голосов: 1, оценка 3/5, голосовать можно 1 раз )

    Другие торренты по теме:

  • Достать Санту / Get Santa (2014) HDRip [EN] скачать через торрент бесплатно
  • Достать Санту / Get Santa (2014) BDRip [H.264 / 1080p] [MVO] [PR]


    • Комментарии (0):

      Информация

      Информация

        Посетители, находящиеся в группе Гости, не могут оставлять комментарии в данной новости.

        ↓ Меню




        ↓ Опрос

        Вы добавили сайт в закладки?
        Да
        Нет


        Top 10 за месяц (Фильмы)