.
Авторизация | Регистрация
Хочешь лучшие торренты? Добавь свой email!
Добавить

Торрент скачать бесплатно

  • support: webmaster@btracker.club
» » Близкое расстояние / Close Range (2015) BDRip [H.264 / 1080p-LQ] [MVO] торрент скачать бесплатно


    Близкое расстояние / Close Range (2015) BDRip [H.264 / 1080p-LQ] [MVO] торрент скачать бесплатно

    Опубликовал: fregat | Дата: 31-12-2018, 05:00 | .torrent скачали: 0

    Близкое расстояние / Close Range (2015) BDRip [H.264 / 1080p-LQ] [MVO]Производство: США/Bleiberg Entertainment, Compound B, Entropy
    Жанр: Боевик, Криминал
    Режиссер: Айзек Флорентайн
    Продюсер: Эхуд Блайберг, Скотт Эдкинс, Николас Доннермейер

    Актеры
    Скотт Эдкинс, Ник Чинланд, Кэйтлин Китс, Джэйк Ла Ботц, Тони Перес, Мэдисон Лоулор, Хулиен Цезарио, Джимми Чхиу, Рэй Диас, Роберт Дилл

    Описание

    Вызволив свою племянницу из лап могущественного картеля, Колтон Макреди вступает в беспощадный бой во имя спасения членов собственной семьи, ставших теперь мишенями для преступников. Его ферму, расположенную в провинциальной глубинке, осаждают жаждущие мести наёмники картеля, прихватившие с собой продажного местного шерифа с командой помощников, которые обеспечат гарантию того, что в ближайшее время к Макреди помощь не прибудет. Начинается безостановочный и методичный штурм фермы, и Колтону ради защиты своих близких и собственного спасения предстоит до конца пройти этот марафон на выживание.

    Релиз от: R.G. Goldenshara
    Продолжительность: 01: 25: 15
    Качество видео: BDRip (1080p-LQ)
    Перевод: Двухголосый закадровый, любительский (Parovoz Production)
    Субтитры: Английские (SDH)
    Видео: AVC/H.264, 1920x1080 (16: 9), ~6956 kbps, 23.976 fps
    Аудио: AC3, 2 ch, 48.0 KHz, 384 kbps
    x264 info: frame I: 991 Avg QP: 17.81 size: 231179
    x264 info: frame P: 29946 Avg QP: 21.17 size: 68470
    x264 info: frame B: 91704 Avg QP: 22.92 size: 23591
    x264 info: consecutive B-frames: 3.1% 4.8% 12.7% 22.1% 20.6% 28.8% 4.6% 1.3% 2.0%

    General
    Unique ID : 244982755529274464436094897485875388433 (0xB84DF664A551E10B87641707C9FE2011)
    Complete name : E: Мои рипыБлизкое расстояние.2015.BDRip.1080p.DVO.mkv
    Format : Matroska
    Format version : Version 4
    File size : 4.37 GiB
    Duration : 1 h 25 min
    Overall bit rate : 7 335 kb/s
    Encoded date : UTC 2018-12-30 15: 40: 45
    Writing application : mkvmerge v6.8.0 (\'Theme for Great Cities\') 32bit built on Mar 2 2014 21: 27: 07
    Writing library : libebml v1.3.0 + libmatroska v1.4.1
    Video
    ID : 1
    Format : AVC
    Format/Info : Advanced Video Codec
    Format profile : High@L4.1
    Format settings : CABAC/4 Ref Frames
    Format settings, CABAC : Yes
    Format settings, ReFrames : 4 frames
    Codec ID : V_MPEG4/ISO/AVC
    Duration : 1 h 25 min
    Bit rate : 6 956 kb/s
    Width : 1 920 pixels
    Height : 1 080 pixels
    Display aspect ratio : 16: 9
    Frame rate mode : Constant
    Frame rate : 23.976 FPS
    Color space : YUV
    Chroma subsampling : 4: 2: 0
    Bit depth : 8 bits
    Scan type : Progressive
    Bits/(Pixel*Frame) : 0.140
    Stream size : 4.05 GiB (93%)
    Writing library : x264 core 130 r2273 b3065e6
    Encoding settings : cabac=1/ref=4/deblock=1: -3: -3/analyse=0x3: 0x113/me=umh/subme=11/psy=1/psy_rd=1.00: 0.15/mixed_ref=1/me_range=48/chroma_me=1/trellis=2/8x8dct=1/cqm=0/deadzone=21, 11/fast_pskip=0/chroma_qp_offset=-4/threads=6/lookahead_threads=1/sliced_threads=0/nr=0/decimate=0/interlaced=0/bluray_compat=0/constrained_intra=0/bframes=8/b_pyramid=2/b_adapt=2/b_bias=0/direct=2/weightb=1/open_gop=0/weightp=2/keyint=250/keyint_min=23/scenecut=40/intra_refresh=0/rc=2pass/mbtree=0/bitrate=6956/ratetol=1.0/qcomp=0.60/qpmin=0/qpmax=69/qpstep=4/cplxblur=20.0/qblur=0.5/ip_ratio=1.40/pb_ratio=1.30/aq=2: 1.00
    Language : English
    Default : Yes
    Forced : No
    Audio
    ID : 2
    Format : AC-3
    Format/Info : Audio Coding 3
    Commercial name : Dolby Digital
    Codec ID : A_AC3
    Duration : 1 h 25 min
    Bit rate mode : Constant
    Bit rate : 384 kb/s
    Channel(s) : 2 channels
    Channel layout : L R
    Sampling rate : 48.0 kHz
    Frame rate : 31.250 FPS (1536 SPF)
    Bit depth : 16 bits
    Compression mode : Lossy
    Stream size : 234 MiB (5%)
    Title : DVO Parovoz Production
    Language : Russian
    Service kind : Complete Main
    Default : Yes
    Forced : No
    Text
    ID : 3
    Format : UTF-8
    Codec ID : S_TEXT/UTF8
    Codec ID/Info : UTF-8 Plain Text
    Title : SDH
    Language : English
    Default : No
    Forced : No
    Menu
    00: 00: 00.000 : en: Chapter 1
    00: 08: 44.023 : en: Chapter 2
    00: 12: 43.928 : en: Chapter 3
    00: 18: 21.974 : en: Chapter 4
    00: 21: 28.077 : en: Chapter 5
    00: 27: 08.960 : en: Chapter 6
    00: 32: 48.967 : en: Chapter 7
    00: 36: 18.759 : en: Chapter 8
    00: 43: 57.175 : en: Chapter 9
    00: 48: 33.869 : en: Chapter 10
    00: 50: 42.456 : en: Chapter 11
    00: 57: 48.088 : en: Chapter 12
    01: 02: 48.264 : en: Chapter 13
    01: 08: 49.416 : en: Chapter 14
    01: 14: 21.622 : en: Chapter 15
    01: 20: 32.911 : en: Chapter 16


    Онлайн видео Близкое расстояние



    Близкое расстояние/Close Range (2015) BDRip [H.264/1080p-LQ] [MVO]
    Рейтинг →
     (голосов: 1, оценка 5/5, голосовать можно 1 раз )

    Другие торренты по теме:

  • Близкое расстояние / Close Range (2015) DVDRip [EN] скачать через торрент бесплатно
  • Близкое расстояние / Close Range (2015) WEB-DLRip [H.264 / 720p-LQ] скачать через торрент бесплатно
  • Близкое расстояние / Close Range (2015) WEB-DLRip скачать через торрент бесплатно
  • Близкое расстояние / Close Range (2015) BDRip [H.264 / 720p] [EN] скачать через торрент бесплатно
  • Близкое расстояние / Close Range (2015) BDRip [H.264 / 1080p] [EN] скачать через торрент бесплатно
  • Близкое расстояние / Close Range (2015) BDRemux [H.264 / 1080p] [EN / EN Sub] скачать через торрент бесплатно


    • Комментарии (0):

      Информация

      Информация

        Посетители, находящиеся в группе Гости, не могут оставлять комментарии в данной новости.

        ↓ Меню




        ↓ Опрос

        Вы добавили сайт в закладки?
        Да
        Нет


        Top 10 за месяц (Фильмы)