.
Авторизация | Регистрация
Хочешь лучшие торренты? Добавь свой email!
Добавить

Торрент скачать бесплатно

  • support: webmaster@btracker.club
» » Пираты Карибского моря: На краю Света / Pirates of the Caribbean: At Worlds End (2007) WEB-DLRip [H.264] [Open Matte] торрент скачать бесплатно


    Пираты Карибского моря: На краю Света / Pirates of the Caribbean: At Worlds End (2007) WEB-DLRip [H.264] [Open Matte] торрент скачать бесплатно

    Опубликовал: fregat | Дата: 31-12-2018, 05:00 | .torrent скачали: 0

    Пираты Карибского моря: На краю Света / Pirates of the Caribbean: At Worlds End (2007) WEB-DLRip [H.264] [Open Matte]Производство: США/Second Mate Productions, Walt Disney Pictures
    Жанр: Фэнтези, Боевик, Приключения
    Режиссер: Гор Вербински

    Актеры
    Джонни Депп, Джеффри Раш, Орландо Блум, Кира Найтли, Том Холландер, Билл Найи, Стеллан Скарсгард, Наоми Харрис, Джек Девенпорт, Чоу Юнь-Фат

    Описание

    Новые приключения Джека Воробья и его друзей Уилла Тернера и Элизабет Суонн. На этот раз Уиллу и Элизабет придется объединиться с самим Капитаном Барбоссой для того, чтобы отправиться на край света и спасти своего друга — Джека. Ситуация осложняется тем, что Элизабет попадает к сингапурским пиратам…

    Возраст: 12+ (зрителям, достигшим 12 лет)
    Рейтинг MPAA: PG-13 (детям до 13 лет просмотр нежелателен)
    Продолжительность: 02: 48: 39
    Качество видео: WEB-DLRip-AVC
    Перевод: Дублированный
    Субтитры: Русский, Английский, Украинский
    Видео: AVC/H.264, 1024x576, ~2007 Kbps
    Аудио: AC3, 6 ch, 448 Kbps - русский

    General
    Unique ID : 230261664759824187320315586426452633826 (0xAD3AC894CD574700AEC322E3B884E8E2)
    Complete name : D: PoC.At.Worlds.End.2007.Open.Matte.AVC.ExKinoRay.mkv
    Format : Matroska
    Format version : Version 2
    File size : 2.89 GiB
    Duration : 2 h 48 min
    Overall bit rate : 2 457 kb/s
    Movie name : At World\'s End 2007 Open Matte from ExKinoRay
    Encoded date : UTC 2018-08-23 01: 36: 22
    Writing application : mkvmerge v5.6.0 (\'Kenya Kane\') built on May 27 2012 16: 44: 04
    Writing library : libebml v1.2.3 + libmatroska v1.3.0
    Video
    ID : 1
    Format : AVC
    Format/Info : Advanced Video Codec
    Format profile : High@L4.1
    Format settings, CABAC : Yes
    Format settings, ReFrames : 12 frames
    Codec ID : V_MPEG4/ISO/AVC
    Duration : 2 h 48 min
    Bit rate : 2 007 kb/s
    Width : 1 024 pixels
    Height : 576 pixels
    Display aspect ratio : 16: 9
    Frame rate mode : Constant
    Frame rate : 23.976 (24000/1001) FPS
    Original frame rate : 23.976 (23976/1000) FPS
    Color space : YUV
    Chroma subsampling : 4: 2: 0
    Bit depth : 8 bits
    Scan type : Progressive
    Bits/(Pixel*Frame) : 0.142
    Stream size : 2.31 GiB (80%)
    Title : Enigma
    Writing library : x264 core 152 r2851 ba24899
    Encoding settings : cabac=1/ref=12/deblock=1: -2: -2/analyse=0x3: 0x113/me=umh/subme=10/psy=1/psy_rd=1.05: 0.10/mixed_ref=1/me_range=32/chroma_me=1/trellis=2/8x8dct=1/cqm=0/deadzone=21, 11/fast_pskip=0/chroma_qp_offset=-3/threads=12/lookahead_threads=2/sliced_threads=0/nr=0/decimate=0/interlaced=0/bluray_compat=0/constrained_intra=0/bframes=9/b_pyramid=2/b_adapt=2/b_bias=0/direct=3/weightb=1/open_gop=0/weightp=2/keyint=240/keyint_min=23/scenecut=40/intra_refresh=0/rc=2pass/mbtree=0/bitrate=2007/ratetol=1.0/qcomp=0.60/qpmin=0/qpmax=51/qpstep=4/cplxblur=20.0/qblur=0.5/ip_ratio=1.30/pb_ratio=1.20/aq=2: 0.90
    Default : Yes
    Forced : No
    Color range : Limited
    Color primaries : BT.709
    Transfer characteristics : BT.709
    Matrix coefficients : BT.709
    Audio
    ID : 2
    Format : AC-3
    Format/Info : Audio Coding 3
    Mode extension : CM (complete main)
    Format settings, Endianness : Big
    Codec ID : A_AC3
    Duration : 2 h 48 min
    Bit rate mode : Constant
    Bit rate : 448 kb/s
    Channel(s) : 6 channels
    Channel positions : Front: L C R, Side: L R, LFE
    Sampling rate : 48.0 kHz
    Frame rate : 31.250 FPS (1536 spf)
    Compression mode : Lossy
    Stream size : 540 MiB (18%)
    Title : Dub
    Language : Russian
    Default : Yes
    Forced : No
    Text #1
    ID : 3
    Format : UTF-8
    Codec ID : S_TEXT/UTF8
    Codec ID/Info : UTF-8 Plain Text
    Title : Forced
    Language : Russian
    Default : Yes
    Forced : No
    Text #2
    ID : 4
    Format : UTF-8
    Codec ID : S_TEXT/UTF8
    Codec ID/Info : UTF-8 Plain Text
    Title : Full
    Language : Russian
    Default : No
    Forced : No
    Text #3
    ID : 5
    Format : UTF-8
    Codec ID : S_TEXT/UTF8
    Codec ID/Info : UTF-8 Plain Text
    Title : Full
    Language : Ukrainian
    Default : No
    Forced : No
    Text #4
    ID : 6
    Format : UTF-8
    Codec ID : S_TEXT/UTF8
    Codec ID/Info : UTF-8 Plain Text
    Language : English
    Default : No
    Forced : No

    Скриншоты для ознакомления



    Все одноименные релизы в Клубе
    Время раздачи: 24/7 (мультитрекерный релиз)


    Онлайн видео Пираты Карибского моря: На краю Света



    Пираты Карибского моря: На краю Света/Pirates of the Caribbean: At Worlds End (2007) WEB-DLRip [H.264] [Open Matte]
    Рейтинг →
     (голосов: 1, оценка 4/5, голосовать можно 1 раз )

    Другие торренты по теме:

  • Пираты Карибского моря: Квадрология / Pirates of the Caribbean: Quadrilogy (2003,2006,2007,2011) BDRip [720p] скачать через торрент бесплатно
  • Пираты Карибского моря: Квадрология / Pirates of the Caribbean: Quadrilogy (2003-2011) HDRip [H.264] [MP4|960х400] скачать через торрент бесплатно
  • Пираты Карибского моря: Проклятие Черной жемчужины / Pirates of the Caribbean: The Curse of the Black Pearl (2003) BDRip [H.264 / 1080p-LQ]
  • Пираты Карибского моря: Сундук мертвеца / Pirates of the Caribbean: Dead Mans Chest (2006) BDRip [H.264 / 1080p-LQ]
  • Пираты Карибского моря: На краю Света / Pirates of the Caribbean: At Worlds End (2007) BDRip [H.264 / 1080p-LQ]
  • Пираты Карибского моря: На странных берегах / Pirates Of The Caribbean: On Stranger Tides (2011) HDRip [AVO]
  • Пираты Карибского моря: Проклятие Черной жемчужины / Pirates of the Caribbean: The Curse of the Black Pearl (2003) BDRip [H.265 / 1080p] [US Edition]
  • Пираты Карибского моря: На краю Света / Pirates of the Caribbean: At Worlds End (2007) BDRip [H.265 / 1080p-LQ]


    • Комментарии (0):

      Информация

      Информация

        Посетители, находящиеся в группе Гости, не могут оставлять комментарии в данной новости.

        ↓ Меню




        ↓ Опрос

        Вы добавили сайт в закладки?
        Да
        Нет


        Top 10 за месяц (Фильмы)