.
Авторизация | Регистрация
Хочешь лучшие торренты? Добавь свой email!
Добавить

Торрент скачать бесплатно

  • support: webmaster@btracker.club
» » Решение о ликвидации (2018) WEB-DLRip (серии 1-2 из 2) [Расширенная ТВ-версия] торрент скачать бесплатно


    Решение о ликвидации (2018) WEB-DLRip (серии 1-2 из 2) [Расширенная ТВ-версия] торрент скачать бесплатно

    Опубликовал: fregat | Дата: 31-12-2018, 05:00 | .torrent скачали: 0

    Решение о ликвидации (2018) WEB-DLRip (серии 1-2 из 2) [Расширенная ТВ-версия]Производство: Россия/Мосфильм
    Жанр: Военный, боевик, драма
    Режиссер: Александр Аравин

    Актеры
    Игорь Петренко, Алексей Вертков, Аюб Цингиев, Алексей Шевченков, Дмитрий Парастаев, Иван Шахназаров, Дагун Омаев, Сослан Фидаров, Кирилл Краснов, Шамиль Алханов

    Описание

    Фильм основан на реальных событиях.
    Особое задание спецгруппы ФСБ — ликвидация одержимого террориста Шамиля Басаева. Охота продолжается уже долго, но жестокий лидер боевиков раз за разом ускользает. Однако, когда Басаеву удается заполучить мощное оружие для осуществления своего самого страшного теракта, у оперативников больше нет права на ошибку. Для этих спецов преодоление себя, смертельный риск и подвиг — не что-то сверхъестественное, а каждодневный тяжелый труд. Но, кажется, даже для них эта операция — за пределами возможностей…

    Возраст: 12+ (зрителям, достигшим 12 лет)
    Релиз от: Алехаndr
    Продолжительность: 01: 18: 42 + 01: 18: 34
    Качество видео: WEB-DLRip
    Субтитры: Русские (хардсаб) на чеченскую речь
    Видео: Xvid, 720x400 (16: 9), ~2260 Kbps
    Аудио: AC3, 2 ch, 192 Kbps

    Общее
    Полное имя : D: Решение о ликвидации (2018).by.АлехаndrСерия 1.by.Алехаndr.avi
    Формат : AVI
    Формат/Информация : Audio Video Interleave
    Профиль формата : OpenDML
    Размер файла : 1, 36 Гбайт
    Продолжительность : 1 ч. 18 м.
    Общий поток : 2465 Кбит/сек
    Программа кодирования : Lavf58.12.100
    Видео
    Идентификатор : 0
    Формат : xvid
    Идентификатор кодека : xvid
    Продолжительность : 1 ч. 18 м.
    Битрейт : 2261 Кбит/сек
    Ширина : 720 пикселей
    Высота : 400 пикселей
    Соотношение сторон : 16: 9
    Частота кадров : 25, 000 кадров/сек
    Тип развёртки : Прогрессивная
    Бит/(Пиксели*Кадры) : 0.314
    Размер потока : 1, 24 Гбайт (92%)
    Аудио
    Идентификатор : 1
    Формат : AC-3
    Формат/Информация : Audio Coding 3
    Коммерческое название : Dolby Digital
    Идентификатор кодека : 2000
    Продолжительность : 1 ч. 18 м.
    Вид битрейта : Постоянный
    Битрейт : 192 Кбит/сек
    Каналы : 2 канала
    Channel layout : L R
    Частота : 48, 0 КГц
    Частота кадров : 31, 250 кадров/сек (1536 SPF)
    Битовая глубина : 16 бит
    Метод сжатия : С потерями
    Размер потока : 108 Мбайт (8%)
    Выравнивание : Соединение по промежуткам
    Продолжительность промежутка : 32 мс. (0, 80 видеокадр)
    ServiceKind/String : Complete Main
    Общее
    Полное имя : D: Решение о ликвидации (2018).by.АлехаndrСерия 2.by.Алехаndr.avi
    Формат : AVI
    Формат/Информация : Audio Video Interleave
    Профиль формата : OpenDML
    Размер файла : 1, 37 Гбайт
    Продолжительность : 1 ч. 18 м.
    Общий поток : 2500 Кбит/сек
    Программа кодирования : Lavf58.12.100
    Видео
    Идентификатор : 0
    Формат : xvid
    Идентификатор кодека : xvid
    Продолжительность : 1 ч. 18 м.
    Битрейт : 2296 Кбит/сек
    Ширина : 720 пикселей
    Высота : 400 пикселей
    Соотношение сторон : 16: 9
    Частота кадров : 25, 000 кадров/сек
    Тип развёртки : Прогрессивная
    Бит/(Пиксели*Кадры) : 0.319
    Размер потока : 1, 26 Гбайт (92%)
    Аудио
    Идентификатор : 1
    Формат : AC-3
    Формат/Информация : Audio Coding 3
    Коммерческое название : Dolby Digital
    Идентификатор кодека : 2000
    Продолжительность : 1 ч. 18 м.
    Вид битрейта : Постоянный
    Битрейт : 192 Кбит/сек
    Каналы : 2 канала
    Channel layout : L R
    Частота : 48, 0 КГц
    Частота кадров : 31, 250 кадров/сек (1536 SPF)
    Битовая глубина : 16 бит
    Метод сжатия : С потерями
    Размер потока : 108 Мбайт (8%)
    Выравнивание : Соединение по промежуткам
    Продолжительность промежутка : 32 мс. (0, 80 видеокадр)
    ServiceKind/String : Complete Main

    Скриншоты для ознакомления



    Все одноименные релизы в Клубе
    Время раздачи: 24/7 (круглосуточно) (до появления первых 3-5 скачавших)


    Онлайн видео Решение о ликвидации (2018) WEB



    Решение о ликвидации (2018) WEB-DLRip (серии 1-2 из 2) [Расширенная ТВ-версия]
    Рейтинг →
     (голосов: 1, оценка 3/5, голосовать можно 1 раз )

    Другие торренты по теме:

  • Решение о ликвидации (2018) TS [AD]
  • Решение о ликвидации (2018) WEB-DLRip [H.264 / 1080p-LQ] [AD]
  • Решение о ликвидации (2018) BDRip
  • Решение о ликвидации (2018) BDRip [H.264 / 1080p]
  • Решение о ликвидации (2018) BDRemux [H.264 / 1080p]
  • Решение о ликвидации (2018) BDRip [1080p] ATV
  • Решение о ликвидации (2018) BDRip [576p] iPad
  • Решение о ликвидации (2018) BDRip [720p] ATV


    • Комментарии (0):

      Информация

      Информация

        Посетители, находящиеся в группе Гости, не могут оставлять комментарии в данной новости.

        ↓ Меню




        ↓ Опрос

        Вы добавили сайт в закладки?
        Да
        Нет


        Top 10 за месяц (Фильмы)