.
Авторизация | Регистрация
Хочешь лучшие торренты? Добавь свой email!
Добавить

Торрент скачать бесплатно

  • support: webmaster@btracker.club
» » Ярди / Yardie (2018) BDRemux [EN / EN Sub] торрент скачать бесплатно


    Ярди / Yardie (2018) BDRemux [EN / EN Sub] торрент скачать бесплатно

    Опубликовал: fregat | Дата: 31-12-2018, 05:00 | .torrent скачали: 0

    Ярди / Yardie (2018) BDRemux [EN / EN Sub]Производство: Великобритания/Warp Films, BFI Film Fund
    Жанр: Криминал
    Режиссер: Идрис Эльба

    Актеры
    Амл Амин, Акин Гази, Фрайзер Джеймс, Марк Смит, Дипак Ананд, Фран Тарг, Наоми Аки, Толу Огунмефун, Шантоль Джексон, Филипс Норти

    Описание

    Адаптация романа 1993 года Ярди. Жаркая ночь на Ямайке, 1973 год. Джерри — диджей на вечеринке, который пытается поддержать хрупкое перемирие между двумя воюющими бандами. Здесь же находится и его маленький брат Денис, который становится свидетелем смерти Джерри от пулевого ранения. Проходит десять лет, Денис носит статус правой руки босса и отправляется на очередное задание в Лондон. Между делом он решает найти убийцу своего брата.

    Продолжительность: 01: 41: 42
    Качество видео: BDRemux
    Перевод: Отсутствует
    Язык озвучки: Английский
    Субтитры: английские
    Видео: AVC/H.264, 1920x1080, ~25.6 Mbps
    Аудио: DTS-HD MA, 6 ch, 3 754 Kbps - английский

    General
    Unique ID : 14001129255967862441060010853408405451 (0xA8884F7FBD19CF1C8AED287191777CB)
    Complete name : Yardie.2018.1080p.REMUX.BluRay.AVC.DTS-HD.MA.5.1-iFTYardie.2018.1080p.REMUX.BluRay.AVC.DTS-HD.MA.5.1-iFT.mkv
    Format : Matroska
    Format version : Version 4
    File size : 20.8 GiB
    Duration : 1 h 41 min
    Overall bit rate mode : Variable
    Overall bit rate : 29.3 Mb/s
    Encoded date : UTC 2018-12-25 11: 09: 12
    Writing application : mkvmerge v29.0.0 (\'Like It Or Not\') 64-bit
    Writing library : libebml v1.3.6 + libmatroska v1.4.9
    Video
    ID : 1
    Format : AVC
    Format/Info : Advanced Video Codec
    Format profile : High@L4.1
    Format settings : CABAC/4 Ref Frames
    Format settings, CABAC : Yes
    Format settings, RefFrames : 4 frames
    Codec ID : V_MPEG4/ISO/AVC
    Duration : 1 h 41 min
    Bit rate mode : Variable
    Bit rate : 25.6 Mb/s
    Maximum bit rate : 30.0 Mb/s
    Width : 1 920 pixels
    Height : 1 080 pixels
    Display aspect ratio : 16: 9
    Frame rate mode : Constant
    Frame rate : 24.000 FPS
    Color space : YUV
    Chroma subsampling : 4: 2: 0
    Bit depth : 8 bits
    Scan type : Progressive
    Bits/(Pixel*Frame) : 0.514
    Stream size : 18.2 GiB (87%)
    Language : English
    Default : Yes
    Forced : No
    Audio
    ID : 2
    Format : DTS XLL
    Format/Info : Digital Theater Systems
    Commercial name : DTS-HD Master Audio
    Codec ID : A_DTS
    Duration : 1 h 41 min
    Bit rate mode : Variable
    Bit rate : 3 754 kb/s
    Channel(s) : 6 channels
    Channel layout : C L R Ls Rs LFE
    Sampling rate : 48.0 kHz
    Frame rate : 93.750 FPS (512 SPF)
    Bit depth : 24 bits
    Compression mode : Lossless
    Stream size : 2.67 GiB (13%)
    Language : English
    Default : Yes
    Forced : No
    Text
    ID : 3
    Format : PGS
    Muxing mode : zlib
    Codec ID : S_HDMV/PGS
    Codec ID/Info : Picture based subtitle format used on BDs/HD-DVDs
    Duration : 1 h 34 min
    Bit rate : 38.5 kb/s
    Count of elements : 2498
    Stream size : 26.1 MiB (0%)
    Language : English
    Default : Yes
    Forced : No
    Menu
    00: 00: 00.000 : : Capítulo 01
    00: 09: 15.083 : : Capítulo 02
    00: 15: 07.958 : : Capítulo 03
    00: 23: 05.167 : : Capítulo 04
    00: 33: 07.917 : : Capítulo 05
    00: 43: 47.667 : : Capítulo 06
    00: 53: 34.208 : : Capítulo 07
    00: 59: 48.833 : : Capítulo 08
    01: 06: 19.542 : : Capítulo 09
    01: 20: 51.000 : : Capítulo 10
    01: 29: 15.250 : : Capítulo 11
    01: 34: 55.458 : : Capítulo 12

    Скриншоты для ознакомления



    Все одноименные релизы в Клубе
    Время раздачи: с 13: 00 до 23: 00 (до появления первых 3-5 скачавших)


    Онлайн видео Ярди



    Ярди/Yardie (2018) BDRemux [EN/EN Sub]
    Рейтинг →
     (голосов: 1, оценка 5/5, голосовать можно 1 раз )

    Другие торренты по теме:

  • Ярди / Yardie (2018) BDRip [H.264 / 720p] [MVO]


    • Комментарии (0):

      Информация

      Информация

        Посетители, находящиеся в группе Гости, не могут оставлять комментарии в данной новости.

        ↓ Меню




        ↓ Опрос

        Вы добавили сайт в закладки?
        Да
        Нет


        Top 10 за месяц (Фильмы)