.
Авторизация | Регистрация
Хочешь лучшие торренты? Добавь свой email!
Добавить

Торрент скачать бесплатно

  • support: webmaster@btracker.club
» » Вечерняя школа / Night School (2018) BDRemux [EN / EN, Fr, Sp Sub] торрент скачать бесплатно


    Вечерняя школа / Night School (2018) BDRemux [EN / EN, Fr, Sp Sub] торрент скачать бесплатно

    Опубликовал: fregat | Дата: 31-12-2018, 05:00 | .torrent скачали: 0

    Вечерняя школа / Night School (2018) BDRemux [EN / EN, Fr, Sp Sub]Производство: США/Hartbeat Productions, Perfect World Pictures, Universal Pictures, Will Packer Productions
    Жанр: Комедия
    Режиссер: Малкольм Д. Ли

    Актеры
    Кевин Харт, Тиффани Хэддиш, Кит Дэвид, Бен Шварц, Мэгалин Эчиканвоке, Мэри Линн Райскаб, Таран Киллэм, Энн Уинтерс, Роб Риггл, Романи Малко, Брук Батлер

    Описание

    Тедди добился успеха в жизни: нет образования, девушка ушла, и он работает в костюме курицы возле стрип-клуба. У него есть последний шанс начать все заново — вернуться за школьную парту и получить аттестат. Кто сказал, что учиться никогда не поздно?

    Возраст: 16+ (зрителям, достигшим 16 лет)
    Рейтинг MPAA: PG-13 (детям до 13 лет просмотр нежелателен)
    Продолжительность: 01: 56: 01
    Качество видео: BDRemux
    Перевод: Отсутствует
    Язык озвучки: Английский
    Субтитры: английские, французские, испанские
    Видео: AVC/H.264, 1920x1080, ~24.9 Mbps
    Аудио: DTS: X, 8 ch, 5 587 Kbps - английский

    General
    Unique ID : 24836964028475123613844496886167033762 (0x12AF6CDED2B7910FA90C9B87763CD7A2)
    Complete name : Night.School.2018.EXTENDED.REMUX.BluRay.1080p.AVC.DTS-X.7.1-iFTNight.School.2018.EXTENDED.REMUX.BluRay.1080p.AVC.DTS-X.7.1-iFT.mkv
    Format : Matroska
    Format version : Version 4
    File size : 24.8 GiB
    Duration : 1 h 56 min
    Overall bit rate mode : Variable
    Overall bit rate : 30.6 Mb/s
    Movie name : IFT
    Encoded date : UTC 2018-12-21 16: 31: 48
    Writing application : mkvmerge v29.0.0 (\'Like It Or Not\') 64-bit
    Writing library : libebml v1.3.6 + libmatroska v1.4.9
    Video
    ID : 1
    Format : AVC
    Format/Info : Advanced Video Codec
    Format profile : High@L4.1
    Format settings : CABAC/4 Ref Frames
    Format settings, CABAC : Yes
    Format settings, RefFrames : 4 frames
    Format settings, GOP : M=3, N=12
    Codec ID : V_MPEG4/ISO/AVC
    Duration : 1 h 56 min
    Bit rate mode : Variable
    Bit rate : 24.9 Mb/s
    Maximum bit rate : 28.0 Mb/s
    Width : 1 920 pixels
    Height : 1 080 pixels
    Display aspect ratio : 16: 9
    Frame rate mode : Constant
    Frame rate : 23.976 (24000/1001) FPS
    Color space : YUV
    Chroma subsampling : 4: 2: 0
    Bit depth : 8 bits
    Scan type : Progressive
    Bits/(Pixel*Frame) : 0.501
    Stream size : 20.2 GiB (82%)
    Default : Yes
    Forced : No
    Audio
    ID : 2
    Format : DTS XLL X
    Format/Info : Digital Theater Systems
    Commercial name : DTS-HD Master Audio
    Codec ID : A_DTS
    Duration : 1 h 56 min
    Bit rate mode : Variable
    Bit rate : 5 587 kb/s
    Channel(s) : 8 channels
    Channel(s)_Original : Object Based
    Channel layout : Object Based
    Sampling rate : 48.0 kHz
    Frame rate : 93.750 FPS (512 SPF)
    Bit depth : 24 bits
    Stream size : 4.53 GiB (18%)
    Language : English
    Default : Yes
    Forced : No
    Text #1
    ID : 3
    Format : PGS
    Muxing mode : zlib
    Codec ID : S_HDMV/PGS
    Codec ID/Info : Picture based subtitle format used on BDs/HD-DVDs
    Duration : 1 h 50 min
    Bit rate : 69.9 kb/s
    Count of elements : 5282
    Stream size : 55.4 MiB (0%)
    Language : English
    Default : No
    Forced : No
    Text #2
    ID : 4
    Format : PGS
    Muxing mode : zlib
    Codec ID : S_HDMV/PGS
    Codec ID/Info : Picture based subtitle format used on BDs/HD-DVDs
    Duration : 1 h 55 min
    Bit rate : 54.0 kb/s
    Count of elements : 5045
    Stream size : 44.5 MiB (0%)
    Language : French
    Default : No
    Forced : No
    Text #3
    ID : 5
    Format : PGS
    Muxing mode : zlib
    Codec ID : S_HDMV/PGS
    Codec ID/Info : Picture based subtitle format used on BDs/HD-DVDs
    Duration : 1 h 55 min
    Bit rate : 51.4 kb/s
    Count of elements : 5252
    Stream size : 42.3 MiB (0%)
    Language : Spanish
    Default : No
    Forced : No
    Menu
    00: 00: 00.000 : en: Chapter 01
    00: 04: 38.278 : en: Chapter 02
    00: 08: 25.922 : en: Chapter 03
    00: 13: 20.383 : en: Chapter 04
    00: 19: 09.231 : en: Chapter 05
    00: 26: 59.868 : en: Chapter 06
    00: 30: 17.315 : en: Chapter 07
    00: 38: 08.328 : en: Chapter 08
    00: 42: 02.228 : en: Chapter 09
    00: 47: 35.478 : en: Chapter 10
    00: 50: 51.840 : en: Chapter 11
    01: 02: 32.207 : en: Chapter 12
    01: 08: 56.424 : en: Chapter 13
    01: 15: 38.951 : en: Chapter 14
    01: 19: 40.275 : en: Chapter 15
    01: 25: 52.647 : en: Chapter 16
    01: 33: 46.663 : en: Chapter 17
    01: 38: 41.958 : en: Chapter 18
    01: 44: 19.420 : en: Chapter 19
    01: 51: 21.717 : en: Chapter 20

    Скриншоты для ознакомления



    Все одноименные релизы в Клубе
    Время раздачи: с 13: 00 до 23: 00 (до появления первых 3-5 скачавших)


    Онлайн видео Вечерняя школа



    Вечерняя школа/Night School (2018) BDRemux [EN/EN, Fr, Sp Sub]
    Рейтинг →
     (голосов: 1, оценка 3/5, голосовать можно 1 раз )

    Другие торренты по теме:

  • Вечерняя школа / Night School (2018) BDRip [1080p] ATV
  • Ли Чайлд | Джек Ричер, или Вечерняя школа (2017) [EPUB, FB2, MOBI]
  • Ли Чайлд | Вечерняя школа (2018) [MP3]
  • Вечерняя школа / Night School (2018) WEB-DLRip [H.264 / 720p-LQ] [Звук с TS, AD]


    • Комментарии (0):

      Информация

      Информация

        Посетители, находящиеся в группе Гости, не могут оставлять комментарии в данной новости.

        ↓ Меню




        ↓ Опрос

        Вы добавили сайт в закладки?
        Да
        Нет


        Top 10 за месяц (Фильмы)