.
Авторизация | Регистрация
Хочешь лучшие торренты? Добавь свой email!
Добавить

Торрент скачать бесплатно

  • support: webmaster@btracker.club
» » Гонки по вертикали (1982) WEB-DLRip [H.264 / 720p] (3 серии) торрент скачать бесплатно


    Гонки по вертикали (1982) WEB-DLRip [H.264 / 720p] (3 серии) торрент скачать бесплатно

    Опубликовал: fregat | Дата: 31-12-2018, 05:00 | .torrent скачали: 0

    Гонки по вертикали (1982) WEB-DLRip [H.264 / 720p] (3 серии)Производство : СССР, Киностудия им. Довженко
    Жанр: криминал, детектив, приключения
    Режиссер: Александр Муратов
    Сценарий: Аркадий Вайнер, Георгий Вайнер

    Актеры
    Андрей Мягков, Валентин Гафт, Владимир Сальников (II), Николай Засухин, Галина Польских, Ирина Бразговка, Елена Капица, Станислав Чекан, Вячеслав Жолобов, Валерий Дуров и др.

    Описание

    Психологическая дуэль следователя и обаятельного вора-рецидивиста по кличке Батон, который в итоге получает по заслугам. Однако следователя это не утешит: по ходу дела герой найдет и потеряет любимую...

    Возраст: 12+ (зрителям, достигшим 12 лет)
    Продолжительность: 03: 17: 29 (3 серии)
    Качество видео: WEB-DLRip (720р)
    Субтитры : отсутствуют
    Видео: AVC, 968x720 (4: 3), 25.000 fps, ~6 000 Kbps
    Аудио #1: AC-3, 48.0 KHz, 6 ch, 384 Kbps
    Аудио #2: AC-3, 48.0 KHz, 2 ch, 192 Kbps

    Общее
    Уникальный идентификатор : 232468338474980652149288006819791834375 (0xAEE3C5FECB271136B58AC1B30B490D07)
    Полное имя : F: TVГонки по вертикали_1982-WEB-DLRip 720p_KORSARГонки-1.mkv
    Формат : Matroska
    Версия формата : Version 2
    Размер файла : 2, 87 Гбайт
    Продолжительность : 1 ч. 3 м.
    Общий поток : 6454 Кбит/сек
    Название фильма : Гонки по вертикали_1982-WEB-DLRip 720p_KORSAR
    Дата кодирования : UTC 2017-11-25 11: 11: 10
    Программа кодирования : mkvmerge v5.8.0 (\'No Sleep/Pillow\') built on Sep 2 2012 15: 37: 04
    Библиотека кодирования : libebml v1.2.3 + libmatroska v1.3.0
    Видео
    Идентификатор : 1
    Формат : AVC
    Формат/Информация : Advanced Video Codec
    Профиль формата : High@L4.1
    Параметр CABAC формата : Да
    Параметр ReFrames формата : 11 кадров
    Идентификатор кодека : V_MPEG4/ISO/AVC
    Продолжительность : 1 ч. 3 м.
    Битрейт : 5750 Кбит/сек
    Ширина : 968 пикселей
    Высота : 720 пикселей
    Соотношение сторон : 4: 3
    Режим частоты кадров : Постоянный
    Частота кадров : 25, 000 кадров/сек
    Цветовое пространство : YUV
    Субдискретизация насыщенности : 4: 2: 0
    Битовая глубина : 8 бит
    Тип развёртки : Прогрессивная
    Бит/(Пиксели*Кадры) : 0.330
    Размер потока : 2, 56 Гбайт (89%)
    Библиотека кодирования : x264 core 148 r2744kMod b97ae06
    Настройки программы : cabac=1/ref=11/deblock=1: -2: -1/analyse=0x3: 0x113/me=umh/subme=10/psy=1/fade_compensate=0.00/psy_rd=0.95: 0.05/mixed_ref=1/me_range=40/chroma_me=1/trellis=2/8x8dct=1/cqm=0/deadzone=21, 11/fast_pskip=1/chroma_qp_offset=-3/threads=12/lookahead_threads=2/sliced_threads=0/nr=0/decimate=1/interlaced=0/bluray_compat=0/constrained_intra=0/bframes=9/b_pyramid=2/b_adapt=2/b_bias=0/direct=1/weightb=1/open_gop=0/weightp=2/keyint=250/keyint_min=25/scenecut=40/intra_refresh=0/rc=crf/mbtree=0/crf=17.8000/qcomp=0.60/qpmin=0/qpmax=39/qpstep=4/ip_ratio=1.40/pb_ratio=1.30/aq=1: 0.70
    Язык : English
    Default : Да
    Forced : Нет
    Цветовой диапазон : Limited
    Основные цвета : BT.709
    Характеристики трансфера : BT.709
    Коэффициенты матрицы : BT.709
    Аудио #1
    Идентификатор : 2
    Формат : AC-3
    Формат/Информация : Audio Coding 3
    Расширение режима : CM (complete main)
    Параметр Endianness формата : Big
    Идентификатор кодека : A_AC3
    Продолжительность : 1 ч. 3 м.
    Вид битрейта : Постоянный
    Битрейт : 384 Кбит/сек
    Каналы : 6 каналов
    Расположение каналов : Front: L C R, Side: L R, LFE
    Частота : 48, 0 КГц
    Частота кадров : 31, 250 кадров/сек (1536 spf)
    Битовая глубина : 16 бит
    Метод сжатия : С потерями
    Размер потока : 175 Мбайт (6%)
    Язык : Russian
    Default : Да
    Forced : Нет
    Аудио #2
    Идентификатор : 3
    Формат : AC-3
    Формат/Информация : Audio Coding 3
    Расширение режима : CM (complete main)
    Параметр Endianness формата : Big
    Идентификатор кодека : A_AC3
    Продолжительность : 1 ч. 3 м.
    Вид битрейта : Постоянный
    Битрейт : 192 Кбит/сек
    Каналы : 2 канала
    Расположение каналов : Front: L R
    Частота : 48, 0 КГц
    Частота кадров : 31, 250 кадров/сек (1536 spf)
    Битовая глубина : 16 бит
    Метод сжатия : С потерями
    Размер потока : 87, 6 Мбайт (3%)
    Язык : Russian
    Default : Нет
    Forced : Нет
    Меню
    00: 00: 00.000 : en: Chapter 1
    00: 07: 40.320 : en: Chapter 2
    00: 17: 01.440 : en: Chapter 3
    00: 28: 04.080 : en: Chapter 4
    00: 37: 08.400 : en: Chapter 5
    00: 50: 05.520 : en: Chapter 6
    01: 03: 45.000 : en: Chapter 7
    Общее
    Уникальный идентификатор : 252316207273737906777413362300693454940 (0xBDD2557AC01337FC81E621F12223205C)
    Полное имя : F: TVГонки по вертикали_1982-WEB-DLRip 720pГонки-2.mkv
    Формат : Matroska
    Версия формата : Version 2
    Размер файла : 3, 07 Гбайт
    Продолжительность : 1 ч. 6 м.
    Общий поток : 6643 Кбит/сек
    Название фильма : Гонки по вертикали_1982-WEB-DLRip 720p_KORSAR
    Дата кодирования : UTC 2017-11-25 11: 14: 13
    Программа кодирования : mkvmerge v5.8.0 (\'No Sleep/Pillow\') built on Sep 2 2012 15: 37: 04
    Библиотека кодирования : libebml v1.2.3 + libmatroska v1.3.0
    Видео
    Идентификатор : 1
    Формат : AVC
    Формат/Информация : Advanced Video Codec
    Профиль формата : High@L4.1
    Параметр CABAC формата : Да
    Параметр ReFrames формата : 11 кадров
    Идентификатор кодека : V_MPEG4/ISO/AVC
    Продолжительность : 1 ч. 6 м.
    Битрейт : 5935 Кбит/сек
    Ширина : 968 пикселей
    Высота : 720 пикселей
    Соотношение сторон : 4: 3
    Режим частоты кадров : Постоянный
    Частота кадров : 25, 000 кадров/сек
    Цветовое пространство : YUV
    Субдискретизация насыщенности : 4: 2: 0
    Битовая глубина : 8 бит
    Тип развёртки : Прогрессивная
    Бит/(Пиксели*Кадры) : 0.341
    Размер потока : 2, 74 Гбайт (89%)
    Библиотека кодирования : x264 core 148 r2744kMod b97ae06
    Настройки программы : cabac=1/ref=11/deblock=1: -2: -1/analyse=0x3: 0x113/me=umh/subme=10/psy=1/fade_compensate=0.00/psy_rd=0.95: 0.05/mixed_ref=1/me_range=40/chroma_me=1/trellis=2/8x8dct=1/cqm=0/deadzone=21, 11/fast_pskip=1/chroma_qp_offset=-3/threads=12/lookahead_threads=2/sliced_threads=0/nr=0/decimate=1/interlaced=0/bluray_compat=0/constrained_intra=0/bframes=9/b_pyramid=2/b_adapt=2/b_bias=0/direct=1/weightb=1/open_gop=0/weightp=2/keyint=250/keyint_min=25/scenecut=40/intra_refresh=0/rc=crf/mbtree=0/crf=17.8000/qcomp=0.60/qpmin=0/qpmax=39/qpstep=4/ip_ratio=1.40/pb_ratio=1.30/aq=1: 0.70
    Язык : English
    Default : Да
    Forced : Нет
    Цветовой диапазон : Limited
    Основные цвета : BT.709
    Характеристики трансфера : BT.709
    Коэффициенты матрицы : BT.709
    Аудио #1
    Идентификатор : 2
    Формат : AC-3
    Формат/Информация : Audio Coding 3
    Расширение режима : CM (complete main)
    Параметр Endianness формата : Big
    Идентификатор кодека : A_AC3
    Продолжительность : 1 ч. 6 м.
    Вид битрейта : Постоянный
    Битрейт : 384 Кбит/сек
    Каналы : 6 каналов
    Расположение каналов : Front: L C R, Side: L R, LFE
    Частота : 48, 0 КГц
    Частота кадров : 31, 250 кадров/сек (1536 spf)
    Битовая глубина : 16 бит
    Метод сжатия : С потерями
    Размер потока : 182 Мбайт (6%)
    Язык : Russian
    Default : Да
    Forced : Нет
    Аудио #2
    Идентификатор : 3
    Формат : AC-3
    Формат/Информация : Audio Coding 3
    Расширение режима : CM (complete main)
    Параметр Endianness формата : Big
    Идентификатор кодека : A_AC3
    Продолжительность : 1 ч. 6 м.
    Вид битрейта : Постоянный
    Битрейт : 192 Кбит/сек
    Каналы : 2 канала
    Расположение каналов : Front: L R
    Частота : 48, 0 КГц
    Частота кадров : 31, 250 кадров/сек (1536 spf)
    Битовая глубина : 16 бит
    Метод сжатия : С потерями
    Размер потока : 90, 9 Мбайт (3%)
    Язык : Russian
    Default : Нет
    Forced : Нет
    Меню
    00: 00: 00.000 : en: Chapter 1
    00: 09: 27.480 : en: Chapter 2
    00: 23: 35.160 : en: Chapter 3
    00: 33: 08.760 : en: Chapter 4
    00: 44: 18.840 : en: Chapter 5
    00: 52: 30.600 : en: Chapter 6
    01: 06: 09.840 : en: Chapter 7
    Общее
    Уникальный идентификатор : 230708496916163826554903189398384893594 (0xAD90D71B82ECB0BBBB83D25129495E9A)
    Полное имя : F: TVГонки по вертикали_1982-WEB-DLRip 720pГонки-3.mkv
    Формат : Matroska
    Версия формата : Version 2
    Размер файла : 3, 31 Гбайт
    Продолжительность : 1 ч. 7 м.
    Общий поток : 6988 Кбит/сек
    Название фильма : Гонки по вертикали_1982-WEB-DLRip 720p_KORSAR
    Дата кодирования : UTC 2017-11-25 11: 17: 28
    Программа кодирования : mkvmerge v5.8.0 (\'No Sleep/Pillow\') built on Sep 2 2012 15: 37: 04
    Библиотека кодирования : libebml v1.2.3 + libmatroska v1.3.0
    Видео
    Идентификатор : 1
    Формат : AVC
    Формат/Информация : Advanced Video Codec
    Профиль формата : High@L4.1
    Параметр CABAC формата : Да
    Параметр ReFrames формата : 11 кадров
    Идентификатор кодека : V_MPEG4/ISO/AVC
    Продолжительность : 1 ч. 7 м.
    Битрейт : 6273 Кбит/сек
    Ширина : 968 пикселей
    Высота : 720 пикселей
    Соотношение сторон : 4: 3
    Режим частоты кадров : Постоянный
    Частота кадров : 25, 000 кадров/сек
    Цветовое пространство : YUV
    Субдискретизация насыщенности : 4: 2: 0
    Битовая глубина : 8 бит
    Тип развёртки : Прогрессивная
    Бит/(Пиксели*Кадры) : 0.360
    Размер потока : 2, 97 Гбайт (90%)
    Библиотека кодирования : x264 core 148 r2744kMod b97ae06
    Настройки программы : cabac=1/ref=11/deblock=1: -2: -1/analyse=0x3: 0x113/me=umh/subme=10/psy=1/fade_compensate=0.00/psy_rd=0.95: 0.05/mixed_ref=1/me_range=40/chroma_me=1/trellis=2/8x8dct=1/cqm=0/deadzone=21, 11/fast_pskip=1/chroma_qp_offset=-3/threads=12/lookahead_threads=2/sliced_threads=0/nr=0/decimate=1/interlaced=0/bluray_compat=0/constrained_intra=0/bframes=9/b_pyramid=2/b_adapt=2/b_bias=0/direct=1/weightb=1/open_gop=0/weightp=2/keyint=250/keyint_min=25/scenecut=40/intra_refresh=0/rc=crf/mbtree=0/crf=17.8000/qcomp=0.60/qpmin=0/qpmax=39/qpstep=4/ip_ratio=1.40/pb_ratio=1.30/aq=1: 0.70
    Язык : English
    Default : Да
    Forced : Нет
    Цветовой диапазон : Limited
    Основные цвета : BT.709
    Характеристики трансфера : BT.709
    Коэффициенты матрицы : BT.709
    Аудио #1
    Идентификатор : 2
    Формат : AC-3
    Формат/Информация : Audio Coding 3
    Расширение режима : CM (complete main)
    Параметр Endianness формата : Big
    Идентификатор кодека : A_AC3
    Продолжительность : 1 ч. 7 м.
    Вид битрейта : Постоянный
    Битрейт : 384 Кбит/сек
    Каналы : 6 каналов
    Расположение каналов : Front: L C R, Side: L R, LFE
    Частота : 48, 0 КГц
    Частота кадров : 31, 250 кадров/сек (1536 spf)
    Битовая глубина : 16 бит
    Метод сжатия : С потерями
    Размер потока : 186 Мбайт (5%)
    Язык : Russian
    Default : Да
    Forced : Нет
    Аудио #2
    Идентификатор : 3
    Формат : AC-3
    Формат/Информация : Audio Coding 3
    Расширение режима : CM (complete main)
    Параметр Endianness формата : Big
    Идентификатор кодека : A_AC3
    Продолжительность : 1 ч. 7 м.
    Вид битрейта : Постоянный
    Битрейт : 192 Кбит/сек
    Каналы : 2 канала
    Расположение каналов : Front: L R
    Частота : 48, 0 КГц
    Частота кадров : 31, 250 кадров/сек (1536 spf)
    Битовая глубина : 16 бит
    Метод сжатия : С потерями
    Размер потока : 93, 1 Мбайт (3%)
    Язык : Russian
    Default : Нет
    Forced : Нет
    Меню
    00: 00: 00.000 : en: Chapter 1
    00: 08: 36.720 : en: Chapter 2
    00: 19: 15.960 : en: Chapter 3
    00: 28: 57.360 : en: Chapter 4
    00: 39: 35.760 : en: Chapter 5
    00: 51: 21.120 : en: Chapter 6
    01: 07: 45.600 : en: Chapter 7


    Онлайн видео Гонки по вертикали (1982) WEB-DLRip [H.264



    Гонки по вертикали (1982) WEB-DLRip [H.264/720p] (3 серии)
    Рейтинг →
     (голосов: 1, оценка 5/5, голосовать можно 1 раз )

    Другие торренты по теме:

  • Гонки по вертикали (1982) DVDRip [H.264] (3 серии)


    • Комментарии (0):

      Информация

      Информация

        Посетители, находящиеся в группе Гости, не могут оставлять комментарии в данной новости.

        ↓ Меню




        ↓ Опрос

        Вы добавили сайт в закладки?
        Да
        Нет


        Top 10 за месяц (Фильмы)