.
Авторизация | Регистрация
Хочешь лучшие торренты? Добавь свой email!
Добавить

Торрент скачать бесплатно

  • support: webmaster@btracker.club
» » Черное зеркало: Брандашмыг / Black Mirror: Bandersnatch (2018) WEBRip [H.264 / 720p-LQ] [MVO] торрент скачать бесплатно


    Черное зеркало: Брандашмыг / Black Mirror: Bandersnatch (2018) WEBRip [H.264 / 720p-LQ] [MVO] торрент скачать бесплатно

    Опубликовал: fregat | Дата: 31-12-2018, 05:00 | .torrent скачали: 0

    Черное зеркало: Брандашмыг / Black Mirror: Bandersnatch (2018) WEBRip [H.264 / 720p-LQ] [MVO]Производство: США/House Of Tomorrow, Netflix
    Жанр: Фантастика, триллер, драма, детектив
    Режиссер: Дэвид Слэйд,

    Актеры
    Финн Уайтхед, Крэйг Паркинсон, Элис Лоу, Азим Чаудхри, Уилл Поултер, Таллула Роуз Хэддон, Катриона Нокс, Пол Брэдли, Джонатан Арис, А.Дж. Хотон

    Описание

    1984 год. Молодой программист Стефан с многолетним чувством вины за смерть матери пытается написать компьютерную игру по фантастическому роману. Вскоре реальность искажается, создавая невообразимую путаницу в и без того нездоровом сознании парня.

    Дата мировой премьеры: 28 декабря 2018
    Релиз от: NNMClub
    Продолжительность: 01: 33: 12
    Качество видео: WEBRip (batonchik )
    Перевод: Многоголосый закадровый, любительский (ColdFilm)
    Субтитры: Русские (Full)
    Видео: AVC/H.264, 1280x582, ~2950 Kbps
    Аудио: AC3, 2 ch, 192 Kbps - Русский
    --Information Вс 30.12.18 9: 32: 12 Standard output stream
    --Information Вс 30.12.18 9: 32: 12 Standard error stream
    ---Information Вс 30.12.18 9: 32: 20 y4m info: 1280x582p 1: 1 @ 25/1 fps (cfr)
    ---Information Вс 30.12.18 9: 32: 20 x264 info: using SAR=1/1
    ---Information Вс 30.12.18 9: 32: 20 x264 info: using cpu capabilities: MMX2 SSE2Fast SSSE3 SSE4.2 AVX
    ---Information Вс 30.12.18 9: 32: 20 x264 info: profile High, level 4.1, 4: 2: 0, 8-bit
    ---Information Вс 30.12.18 14: 03: 18 x264 info: frame I: 1418 Avg QP: 15.26 size: 97843
    ---Information Вс 30.12.18 14: 03: 18 x264 info: frame P: 29308 Avg QP: 18.20 size: 34975
    ---Information Вс 30.12.18 14: 03: 18 x264 info: frame B: 109080 Avg QP: 21.25 size: 8233

    ---Information Вс 30.12.18 14: 03: 18 x264 info: consecutive B-frames: 2.3% 2.9% 8.7% 9.8% 13.7% 56.6% 2.1% 0.5% 0.4% 0.2% 0.4% 2.3%

    General
    Complete name : Black Mirror 2018 WEBRip.720p.LQ.NNMClub.mkv
    Format : Matroska
    Format version : Version 2
    File size : 2.05 GiB
    Duration : 1 h 33 min
    Overall bit rate : 3 143 kb/s
    Movie name : Black Mirror 2018 WEBRip.720p.LQ.NNMClub
    Encoded date : UTC 2018-12-30 12: 39: 22
    Writing application : mkvmerge v7.7.0 (\'Six Voices\') 64bit built on Feb 28 2015 23: 39: 33
    Writing library : libebml v1.3.1 + libmatroska v1.4.2
    Video
    ID : 1
    Format : AVC
    Format/Info : Advanced Video Codec
    Format profile : High@L4.1
    Format settings : CABAC/11 Ref Frames
    Format settings, CABAC : Yes
    Format settings, ReFrames : 11 frames
    Codec ID : V_MPEG4/ISO/AVC
    Duration : 1 h 33 min
    Bit rate : 2 950 kb/s
    Width : 1 280 pixels
    Height : 582 pixels
    Display aspect ratio : 2.2: 1
    Frame rate mode : Constant
    Frame rate : 25.000 FPS
    Color space : YUV
    Chroma subsampling : 4: 2: 0
    Bit depth : 8 bits
    Scan type : Progressive
    Bits/(Pixel*Frame) : 0.158
    Stream size : 1.88 GiB (92%)
    Title : Black Mirror 2018 WEBRip.720p.LQ.NNMClub
    Writing library : x264 core 157 r2935 545de2f
    Encoding settings : cabac=1/ref=11/deblock=1: -3: -3/analyse=0x3: 0x133/me=umh/subme=11/psy=1/psy_rd=1.00: 0.25/mixed_ref=1/me_range=32/chroma_me=1/trellis=2/8x8dct=1/cqm=0/deadzone=6, 6/fast_pskip=0/chroma_qp_offset=-4/threads=12/lookahead_threads=3/sliced_threads=0/nr=0/decimate=0/interlaced=0/bluray_compat=0/constrained_intra=0/bframes=11/b_pyramid=2/b_adapt=2/b_bias=0/direct=1/weightb=1/open_gop=0/weightp=2/keyint=240/keyint_min=23/scenecut=40/intra_refresh=0/rc_lookahead=40/rc=2pass/mbtree=1/bitrate=2950/ratetol=1.0/qcomp=0.60/qpmin=0/qpmax=69/qpstep=4/cplxblur=20.0/qblur=0.5/vbv_maxrate=50000/vbv_bufsize=62500/nal_hrd=none/filler=0/ip_ratio=1.10/aq=3: 0.80
    Language : English
    Default : Yes
    Forced : No
    Audio
    ID : 2
    Format : AC-3
    Format/Info : Audio Coding 3
    Codec ID : A_AC3
    Duration : 1 h 33 min
    Bit rate mode : Constant
    Bit rate : 192 kb/s
    Channel(s) : 2 channels
    Channel positions : Front: L R
    Sampling rate : 48.0 kHz
    Frame rate : 31.250 FPS (1536 SPF)
    Bit depth : 16 bits
    Compression mode : Lossy
    Stream size : 128 MiB (6%)
    Title : Многоголосый закадровый, любительский (ColdFilm)
    Language : Russian
    Service kind : Complete Main
    Default : Yes
    Forced : No
    Text
    ID : 3
    Format : UTF-8
    Codec ID : S_TEXT/UTF8
    Codec ID/Info : UTF-8 Plain Text
    Title : Полные
    Language : Russian
    Default : No
    Forced : No
    Брандашмыг — самостоятельная часть сериала (5 сезон любимого сериалаа) Черное зеркало, который Netflix выпустит 28 декабря 2018 года. Это интерактивный полнометражный фильм, где зрители смогут выбирать, как развивается сюжет и как ведут себя герои. Согласно источникам, для проекта было отснято более пяти часов материала.Уже после этого подписчикам стрим-сервиса станет доступен весь сезон любимого сериала.

    Скриншоты для ознакомления



    Все одноименные релизы в Клубе Время раздачи: 24/7 (до появления первых 3-5 скачавших)


    Онлайн видео Черное зеркало: Брандашмыг



    Черное зеркало: Брандашмыг/Black Mirror: Bandersnatch (2018) WEBRip [H.264/720p-LQ] [MVO]
    Рейтинг →
     (голосов: 1, оценка 3/5, голосовать можно 1 раз )

    Другие торренты по теме:

  • Черное зеркало / Black Mirror (2014) HDTVRip (сезон 3, серии 1 из ) BaibaKo (обновляемая)
  • Черное зеркало / Black Mirror (2014) HDTVRip [H.264 / 720p-LQ] (Сезон 3, эпизод 1 из ) (Кубик в Кубе) (обновляемая)
  • Черное зеркало с Евгением Киселевым (12.02.2016) SATRip [UKR / RUS]
  • Черное зеркало / Black Mirror (2016) WEBRip [H.264 / 720p-LQ] (сезон 3, серии 1 из 6) NewStudio (обновляемая)
  • Черное зеркало / Black Mirror (2014, 2016) HDTVRip / WEBRip (сезон 3, серии 0-6 из 6) BaibaKo
  • Black Mirror 2 / Черное зеркало 2 (2010) [Ru] (1.01) License GOG
  • Черное зеркало / Black Mirror (2011) WEB-DLRip 1080p [Сезон 01] (BaibaKo)
  • Black Mirror 3: Final Fear / Черное зеркало 3 (2011) [Ru / En] (1.01) License GOG


    • Комментарии (0):

      Информация

      Информация

        Посетители, находящиеся в группе Гости, не могут оставлять комментарии в данной новости.

        ↓ Меню




        ↓ Опрос

        Вы добавили сайт в закладки?
        Да
        Нет


        Top 10 за месяц (Фильмы)