.
Авторизация | Регистрация
Хочешь лучшие торренты? Добавь свой email!
Добавить

Торрент скачать бесплатно

  • support: webmaster@btracker.club
» » Агент Джонни Инглиш 3.0 / Johnny English Strikes Again (2018) BDRip [H.264 / 720p-LQ] [Line, AD] торрент скачать бесплатно


    Агент Джонни Инглиш 3.0 / Johnny English Strikes Again (2018) BDRip [H.264 / 720p-LQ] [Line, AD] торрент скачать бесплатно

    Опубликовал: fregat | Дата: 31-12-2018, 05:00 | .torrent скачали: 1

    Агент Джонни Инглиш 3.0 / Johnny English Strikes Again (2018) BDRip [H.264 / 720p-LQ] [Line, AD]Производство: Великобритания, Франция, США, Perfect World Pictures, Studio Canal, Universal Pictures
    Жанр: Боевик, комедия, приключения
    Режиссер: Дэвид Керр

    Актеры
    Эмма Томпсон, Ольга Куриленко, Роуэн Аткинсон, Джейк Лэси, Бен Миллер, Миранда Хеннесси, Адам Джеймс, Пиппа Беннетт-Уорнер, Ирена Тишина, Джеймс Илс

    Описание

    Когда все агенты секретной службы Её Величества внезапно выходят из строя, в игру вступает запасной вариант. Образец английского стиля и любимец роковых красоток; король безвыходных ситуаций и хранитель аналоговых традиций в цифровом мире, агент Джонни Инглиш — боль и гордость британской разведки. Этому парню есть что взбалтывать, и он взболтает не по-детски.

    Возраст: 12+ (зрителям, достигшим 12 лет)
    Рейтинг MPAA: PG (рекомендуется присутствие родителей)
    Дата мировой премьеры: 13 сентября 2018
    Дата премьеры в России: 20 сентября 2018

    Продолжительность: 01: 28: 15
    Качество видео: BDRip
    Перевод: Дублированный (чистый звук)
    Субтитры: Отсутствуют
    Реклама: Присутствуют вставки текстовой рекламы
    Видео: AVC/H.264, 1280x536, ~6588 Kbps
    Аудио: AC-3, 2 ch, 448 Kbps

    Общее
    Полное имя : E: NNMАгент Джонни ИнглишJohnny English Strikes Again 2018 BDRip 720p-LQ.mkv
    Формат : Matroska
    Версия формата : Version 2
    Размер файла : 4, 43 Гбайт
    Продолжительность : 1 ч. 28 м.
    Режим общего битрейта : Переменный
    Общий поток : 7179 Кбит/сек
    Программа кодирования : libmatroska 1.4.1
    Видео
    Идентификатор : 1
    Формат : AVC
    Формат/Информация : Advanced Video Codec
    Профиль формата : High@L4.1
    Настройки формата : CABAC/4 Ref Frames
    Параметр CABAC формата : Да
    Параметр RefFrames формата : 4 кадра
    Идентификатор кодека : V_MPEG4/ISO/AVC
    Продолжительность : 1 ч. 28 м.
    Вид битрейта : Переменный
    Битрейт : 6588 Кбит/сек
    Максимальный битрейт : 7500 Кбит/сек
    Ширина : 1280 пикселей
    Высота : 536 пикселей
    Соотношение сторон : 2, 40: 1
    Режим частоты кадров : Постоянный
    Частота кадров : 23, 976 (24000/1001) кадра/сек
    Стандарт вещания : Component
    Цветовое пространство : YUV
    Субдискретизация насыщенности : 4: 2: 0
    Битовая глубина : 8 бит
    Тип развёртки : Прогрессивная
    Бит/(Пиксели*Кадры) : 0.400
    Размер потока : 4, 06 Гбайт (92%)
    Default : Нет
    Forced : Нет
    Цветовой диапазон : Limited
    Основные цвета : BT.709
    Характеристики трансфера : BT.709
    Коэффициенты матрицы : BT.709
    Аудио
    Идентификатор : 2
    Формат : AC-3
    Формат/Информация : Audio Coding 3
    Идентификатор кодека : A_AC3
    Продолжительность : 1 ч. 28 м.
    Вид битрейта : Постоянный
    Битрейт : 448 Кбит/сек
    Каналы : 2 канала
    Расположение каналов : Front: L R
    Частота : 48, 0 КГц
    Частота кадров : 31, 250 кадров/сек (1536 SPF)
    Битовая глубина : 16 бит
    Метод сжатия : С потерями
    Размер потока : 283 Мбайт (6%)
    ServiceKind/String : Complete Main
    Default : Нет
    Forced : Нет

    Скриншоты для ознакомления



    Все одноименные релизы в Клубе Время раздачи: 24/7 (до появления первых 3-5 скачавших)


    Онлайн видео Агент Джонни Инглиш 3.0



    Агент Джонни Инглиш 3.0/Johnny English Strikes Again (2018) BDRip [H.264/720p-LQ] [Line, AD]
    Рейтинг →
     (голосов: 1, оценка 5/5, голосовать можно 1 раз )

    Другие торренты по теме:

  • Агент Джонни Инглиш 3.0 / Johnny English Strikes Again (2018) BDRip [H.264]
  • Агент Джонни Инглиш 3.0 / Johnny English Strikes Again (2018) UHD BDRemux [H.265 / 2160p] [4K, HDR, 10-bit]
  • Агент Джонни Инглиш 3.0 / Johnny English Strikes Again (2018) TS [AD]
  • Агент Джонни Инглиш 3.0 / Johnny English Strikes Again (2018) HDRip [Звук с TS, AD]
  • Агент Джонни Инглиш 3.0 / Johnny English Strikes Again (2018) HDRip [UKR, ENG]
  • Агент Джонни Инглиш 3.0 / Johnny English Strikes Again (2018) BDRip [H.264 / 1080p] [UKR, ENG / EN Sub] [PR]
  • Агент Джонни Инглиш 3.0 / Johnny English Strikes Again (2018) HDRip [Line, AD]
  • Агент Джонни Инглиш 3.0 / Johnny English Strikes Again (2018) BDRip [H.264 / 1080p] [MVO]


    • Комментарии (0):

      Информация

      Информация

        Посетители, находящиеся в группе Гости, не могут оставлять комментарии в данной новости.

        ↓ Меню




        ↓ Опрос

        Вы добавили сайт в закладки?
        Да
        Нет


        Top 10 за месяц (Фильмы)