.
Авторизация | Регистрация
Хочешь лучшие торренты? Добавь свой email!
Добавить

Торрент скачать бесплатно

  • support: webmaster@btracker.club
» » Агент Джонни Инглиш 3.0 / Johnny English Strikes Again (2018) HDRip [Line, AD] торрент скачать бесплатно


    Агент Джонни Инглиш 3.0 / Johnny English Strikes Again (2018) HDRip [Line, AD] торрент скачать бесплатно

    Опубликовал: fregat | Дата: 31-12-2018, 05:00 | .torrent скачали: 2

    Агент Джонни Инглиш 3.0 / Johnny English Strikes Again (2018) HDRip [Line, AD]Производство: Великобритания, Франция, США, Perfect World Pictures, Studio Canal, Universal Pictures
    Жанр: Боевик, комедия, приключения
    Режиссер: Дэвид Керр

    Актеры
    Эмма Томпсон, Ольга Куриленко, Роуэн Аткинсон, Джейк Лэси, Бен Миллер, Миранда Хеннесси, Адам Джеймс, Пиппа Беннетт-Уорнер, Ирена Тишина, Джеймс Илс

    Описание

    Когда все агенты секретной службы Её Величества внезапно выходят из строя, в игру вступает запасной вариант. Образец английского стиля и любимец роковых красоток; король безвыходных ситуаций и хранитель аналоговых традиций в цифровом мире, агент Джонни Инглиш — боль и гордость британской разведки. Этому парню есть что взбалтывать, и он взболтает не по-детски.

    Возраст: 12+ (зрителям, достигшим 12 лет)
    Рейтинг MPAA: PG (рекомендуется присутствие родителей)
    Дата мировой премьеры: 13 сентября 2018
    Дата премьеры в России: 20 сентября 2018

    Продолжительность: 01: 28: 15
    Качество видео: HDRip
    Перевод: Дублированный (чистый звук)
    Субтитры: Отсутствуют
    Реклама: Присутствуют вставки текстовой рекламы
    Видео: XviD, 720x304, ~1744 Kbps
    Аудио: AC-3, 2 ch, 384 Kbps

    Общее
    Полное имя : E: NNMАгент Джонни ИнглишJohnny English Strikes Again 2018 HDRip.avi
    Формат : AVI
    Формат/Информация : Audio Video Interleave
    Профиль формата : OpenDML
    Размер файла : 1, 32 Гбайт
    Продолжительность : 1 ч. 28 м.
    Общий поток : 2141 Кбит/сек
    Видео
    Идентификатор : 0
    Формат : MPEG-4 Visual
    Профиль формата : Advanced Simple@L5
    Настройки формата : BVOP2/Custom Matrix
    Параметр BVOP формата : 2
    Параметр QPel формата : Нет
    Параметр GMC формата : Без точки перехода
    Параметр матрицы формата : Выборочная
    Идентификатор кодека : XVID
    Идентификатор кодека/Подсказка : XviD
    Продолжительность : 1 ч. 28 м.
    Битрейт : 1744 Кбит/сек
    Ширина : 720 пикселей
    Высота : 304 пикселя
    Соотношение сторон : 2, 35: 1
    Частота кадров : 23, 976 (24000/1001) кадра/сек
    Цветовое пространство : YUV
    Субдискретизация насыщенности : 4: 2: 0
    Битовая глубина : 8 бит
    Тип развёртки : Прогрессивная
    Метод сжатия : С потерями
    Бит/(Пиксели*Кадры) : 0.332
    Размер потока : 1, 08 Гбайт (81%)
    Библиотека кодирования : XviD 1.2.1 (UTC 2008-12-04)
    Аудио
    Идентификатор : 1
    Формат : AC-3
    Формат/Информация : Audio Coding 3
    Идентификатор кодека : 2000
    Продолжительность : 1 ч. 28 м.
    Вид битрейта : Постоянный
    Битрейт : 384 Кбит/сек
    Каналы : 2 канала
    Расположение каналов : Front: L R
    Частота : 48, 0 КГц
    Частота кадров : 31, 250 кадров/сек (1536 SPF)
    Битовая глубина : 16 бит
    Метод сжатия : С потерями
    Размер потока : 242 Мбайт (18%)
    Выравнивание : Соединение по промежуткам
    Продолжительность промежутка : 32 мс. (0, 77 видеокадр)
    ServiceKind/String : Complete Main

    Скриншоты для ознакомления



    Все одноименные релизы в Клубе Время раздачи: 24/7 (до появления первых 3-5 скачавших)


    Онлайн видео Агент Джонни Инглиш 3.0



    Агент Джонни Инглиш 3.0/Johnny English Strikes Again (2018) HDRip [Line, AD]
    Рейтинг →
     (голосов: 1, оценка 4/5, голосовать можно 1 раз )

    Другие торренты по теме:

  • Агент Джонни Инглиш 3.0 / Johnny English Strikes Again (2018) TS [AD]
  • Агент Джонни Инглиш 3.0 / Johnny English Strikes Again (2018) HDRip [Звук с TS, AD]
  • Агент Джонни Инглиш 3.0 / Johnny English Strikes Again (2018) HDRip [UKR, ENG]
  • Агент Джонни Инглиш 3.0 / Johnny English Strikes Again (2018) BDRip [H.264 / 1080p] [UKR, ENG / EN Sub] [PR]
  • Агент Джонни Инглиш 3.0 / Johnny English Strikes Again (2018) BDRip [H.264 / 720p-LQ] [Line, AD]
  • Агент Джонни Инглиш 3.0 / Johnny English Strikes Again (2018) BDRip [H.264 / 1080p] [MVO]
  • Агент Джонни Инглиш 3.0 / Johnny English Strikes Again (2018) BDRip [H.264] [MVO]
  • Агент Джонни Инглиш 3.0 / Johnny English Strikes Again (2018) BDRip [H.264 / 720p]


    • Комментарии (0):

      Информация

      Информация

        Посетители, находящиеся в группе Гости, не могут оставлять комментарии в данной новости.

        ↓ Меню




        ↓ Опрос

        Вы добавили сайт в закладки?
        Да
        Нет


        Top 10 за месяц (Фильмы)