.
Авторизация | Регистрация

Торрент скачать бесплатно

  • support: webmaster@btracker.club
» » 1983 / 1983 (2018) WEBRip (сезон 1, серии 1-8 из 8) NewStudio торрент скачать бесплатно


    1983 / 1983 (2018) WEBRip (сезон 1, серии 1-8 из 8) NewStudio торрент скачать бесплатно

    Дата: 30-12-2018, 16:13 | .torrent скачали: 0

    1983 / 1983 (2018) WEBRip (сезон 1, серии 1-8 из 8) NewStudioПроизводство: Польша, США/House Media Company, The Kennedy/Marshall Company
    Жанр: триллер, драма, криминал
    Режиссер: Касия Адамик, Ольга Хайдас, Агнешка Холланд

    Актеры
    Роберт Вечкевич, Мацей Мусял, Михалина Ольшанска, Анджей Хыра, Ева Блащик, Зофиа Вихлач, Кшиштоф Вак, Агнешка Жулевска, Мирослав Зброевич, Ву Ле Хонг и др.

    Описание

    Сериал расскажет альтернативную историю о мире, в котором разрушительный теракт, организованный в Польше в 1983 году, остановил демократизацию страны и позволил сохранить в ней социалистический строй. Действие политического триллера развернётся в 2002 году: железный занавес никогда не падал и не распался Советский Союз.

    Дата мировой премьеры: 30 ноября 2018
    Продолжительность: ~00: 58: 00 серия
    Качество видео: WEBRip
    Перевод: Многоголосый закадровый, профессиональный -NewStudio
    субтитры: русские (форсированные, 2, 4 серии)
    Видео: XviD, 720x360, ~1394 kbps
    Аудио 1: MP3, 2 ch, 128 kbps — русский, многоголосый закадровый
    Аудио 2: MP3, 2 ch, 128 kbps — польский

    Общее
    Полное имя : D: 1983 (сезон любимого сериала 1) 1983 (2018) WEBRip - NewStudio1983.S01E01.WEBRip..DV.NewStudio.avi
    Формат : AVI
    Формат/Информация : Audio Video Interleave
    Размер файла : 691 Мбайт
    Продолжительность : 58 м. 2 с.
    Общий поток : 1665 Кбит/сек
    Название фильма : 1983.S01E01.WEBRip..DV.NewStudio/NNM-Club
    Программа кодирования : VirtualDubModRus 1.5.10.2 (build 2542/release)
    Библиотека кодирования : VirtualDubMod build 2542/release
    Видео
    Идентификатор : 0
    Формат : MPEG-4 Visual
    Профиль формата : Advanced Simple@L5
    Настройки формата : BVOP2
    Параметр BVOP формата : 2
    Параметр QPel формата : Нет
    Параметр GMC формата : Без точки перехода
    Параметр матрицы формата : Default (H.263)
    Идентификатор кодека : XVID
    Идентификатор кодека/Подсказка : XviD
    Продолжительность : 58 м. 2 с.
    Битрейт : 1394 Кбит/сек
    Ширина : 720 пикселей
    Высота : 360 пикселей
    Соотношение сторон : 2, 000
    Частота кадров : 25, 000 кадров/сек
    Цветовое пространство : YUV
    Субдискретизация насыщенности : 4: 2: 0
    Битовая глубина : 8 бит
    Тип развёртки : Прогрессивная
    Метод сжатия : С потерями
    Бит/(Пиксели*Кадры) : 0.215
    Размер потока : 579 Мбайт (84%)
    Заголовок : Rip by DriverV/NNM-Club
    Библиотека кодирования : XviD 67
    Аудио #1
    Идентификатор : 1
    Формат : MPEG Audio
    Версия формата : Version 1
    Профиль формата : Layer 3
    Настройки формата : Joint stereo/MS Stereo
    Идентификатор кодека : 55
    Идентификатор кодека/Подсказка : MP3
    Продолжительность : 58 м. 2 с.
    Вид битрейта : Постоянный
    Битрейт : 128 Кбит/сек
    Каналы : 2 канала
    Частота : 48, 0 КГц
    Метод сжатия : С потерями
    Размер потока : 53, 1 Мбайт (8%)
    Выравнивание : Соединение по промежуткам
    Продолжительность промежутка : 40 мс. (1, 00 видеокадр)
    Время предзагрузки промежутка : 504 мс.
    Аудио #2
    Идентификатор : 2
    Формат : MPEG Audio
    Версия формата : Version 1
    Профиль формата : Layer 3
    Настройки формата : Joint stereo/MS Stereo
    Идентификатор кодека : 55
    Идентификатор кодека/Подсказка : MP3
    Продолжительность : 58 м. 2 с.
    Вид битрейта : Постоянный
    Битрейт : 128 Кбит/сек
    Каналы : 2 канала
    Частота : 48, 0 КГц
    Метод сжатия : С потерями
    Размер потока : 53, 1 Мбайт (8%)
    Выравнивание : Соединение по промежуткам
    Продолжительность промежутка : 40 мс. (1, 00 видеокадр)
    Время предзагрузки промежутка : 504 мс.


    1983/1983 (2018) WEBRip (сезон 1, серии 1-8 из 8) NewStudio
    Рейтинг →
     (голосов: 1, оценка 3/5, голосовать можно 1 раз )

    Другие торренты по теме:

  • Пляж. Жаркий сезон (2018) WEBRip (сезон 2, серии 1-16 из 16)
  • Конь БоДжек / BoJack Horseman (2014) WEBRip (Сезон 1, серии 1-12 из 12) (NewStudio) [18+]
  • Куку / Cuckoo (2014) WEBRip (Сезон 2, серии 1-2 из 6) (Amedia) (обновляемая)
  • Куку / Cuckoo (2014) WEBRip (Сезон 2, серии 1-4 из 6) (Ozz) (обновляемая)
  • Halo: Сумерки / Halo: Nightfall (2014) WEBRip (сезон 1, серии 1 из 5) AlexFilm (обновляемая) скачать через торрент бесплатно
  • Halo: Сумерки / Halo: Nightfall (2014) WEBRip (сезон 1, серии 1 из 5) NewStudio (обновляемая)
  • Моцарт в джунглях / Mozart in the Jungle (2014) WEBRip (Сезон 1, серия 1 из 10) (Ozz) (обновляемая)
  • Девчонки / Some Girls (2013) WEBRip [сезон 2, серии 1-6 из 6] (ViruseProject)


    • Комментарии (0):

      Информация

      Информация

        Посетители, находящиеся в группе Гости, не могут оставлять комментарии в данной новости.

        ↓ Меню




        ↓ Опрос

        Вы добавили сайт в закладки?
        Да
        Нет


        Top 10 за месяц (Фильмы)