.
Авторизация | Регистрация
Хочешь лучшие торренты? Добавь свой email!
Добавить

Торрент скачать бесплатно

  • support: webmaster@btracker.club
» » Двойник / По ту сторону / Обратная сторона / Counterpart (2018) WEBRip [H.264 / 1080p-LQ] (сезон 2, серии 1-2 из 10) TVShows (обновляемая) торрент скачать бесплатно


    Двойник / По ту сторону / Обратная сторона / Counterpart (2018) WEBRip [H.264 / 1080p-LQ] (сезон 2, серии 1-2 из 10) TVShows (обновляемая) торрент скачать бесплатно

    Опубликовал: fregat | Дата: 30-12-2018, 16:13 | .torrent скачали: 15

    Двойник / По ту сторону / Обратная сторона / Counterpart (2018) WEBRip [H.264 / 1080p-LQ] (сезон 2, серии 1-2 из 10) TVShows (обновляемая)Производство: США/Fireglory Pictures, Anonymous Content, Gilbert Films
    Жанр: фантастика, триллер, драма
    Режиссер: Чарльз Мартин, Лукас Этлин

    Актеры
    Дж.К. Симмонс, Гарри Ллойд, Назанин Бониади, Оливия Уильямс, Сара Болгер, Гай Бернет, Бетти Габриел и др.

    Описание

    Говард Силке, незначительный винтик в бюрократической системе, обнаруживает, что агентство, в котором он работает, на самом деле занимается охраной переходов в параллельное измерение.

    Возраст: 18+ (зрителям, достигшим 18 лет)
    Продолжительность: ~00: 58: 00 серия
    Качество видео: WEBRip
    Перевод: Многоголосый закадровый, любительский (TVShows)
    Субтитры: английские
    Видео: AVC/H.264, 1920х1080 (16: 9), ~4793 Kbps
    Аудио 1: AC3, 6 ch, 384 kbps - русский, многоголосый закадровый
    Аудио 2: E-AC3, 6 ch, 640 kbps - английский

    Двойник Общее
    Уникальный идентификатор : 155566720258510057388596889655713193593 (0x75090F7C3F0BD95CB40865BB8E13DE79)
    Полное имя : I: ТифайлCounterpart.S02.1080p.TVShowsCounterpart.S02E01.1080p.TVShows.mkv
    Формат : Matroska
    Версия формата : Version 4/Version 2
    Размер файла : 2, 38 Гбайт
    Продолжительность : 58 м. 34 с.
    Общий поток : 5819 Кбит/сек
    Дата кодирования : UTC 2018-12-18 14: 17: 26
    Программа кодирования : mkvmerge v29.0.0 (\'Like It Or Not\') 64-bit
    Библиотека кодирования : libebml v1.3.6 + libmatroska v1.4.9
    Видео
    Идентификатор : 1
    Формат : AVC
    Формат/Информация : Advanced Video Codec
    Профиль формата : High@L4
    Параметр CABAC формата : Да
    Параметр ReFrames формата : 4 кадра
    Идентификатор кодека : V_MPEG4/ISO/AVC
    Продолжительность : 58 м. 34 с.
    Битрейт : 4793 Кбит/сек
    Ширина : 1920 пикселей
    Высота : 1080 пикселей
    Соотношение сторон : 16: 9
    Режим частоты кадров : Постоянный
    Частота кадров : 23, 976 (24000/1001) кадра/сек
    Цветовое пространство : YUV
    Субдискретизация насыщенности : 4: 2: 0
    Битовая глубина : 8 бит
    Тип развёртки : Прогрессивная
    Бит/(Пиксели*Кадры) : 0.096
    Размер потока : 1, 96 Гбайт (82%)
    Default : Да
    Forced : Нет
    Цветовой диапазон : Limited
    Основные цвета : BT.709
    Характеристики трансфера : BT.709
    Коэффициенты матрицы : BT.709
    Аудио #1
    Идентификатор : 2
    Формат : AC-3
    Формат/Информация : Audio Coding 3
    Параметр Endianness формата : Big
    Идентификатор кодека : A_AC3
    Продолжительность : 58 м. 34 с.
    Вид битрейта : Постоянный
    Битрейт : 384 Кбит/сек
    Каналы : 6 каналов
    Расположение каналов : Front: L C R, Side: L R, LFE
    Частота : 48, 0 КГц
    Частота кадров : 31, 250 кадров/сек (1536 spf)
    Битовая глубина : 16 бит
    Метод сжатия : С потерями
    Размер потока : 161 Мбайт (7%)
    Заголовок : TVShows
    Язык : Russian
    ServiceKind/String : Complete Main
    Default : Да
    Forced : Да
    Аудио #2
    Идентификатор : 3
    Формат : E-AC-3
    Формат/Информация : Enhanced Audio Coding 3
    Параметр Endianness формата : Big
    Идентификатор кодека : A_EAC3
    Продолжительность : 58 м. 34 с.
    Вид битрейта : Постоянный
    Битрейт : 640 Кбит/сек
    Каналы : 6 каналов
    Расположение каналов : Front: L C R, Side: L R, LFE
    Частота : 48, 0 КГц
    Частота кадров : 187, 500 кадров/сек (256 spf)
    Метод сжатия : С потерями
    Размер потока : 268 Мбайт (11%)
    Заголовок : Original
    Язык : English
    ServiceKind/String : Complete Main
    Default : Нет
    Forced : Нет
    Текст
    Идентификатор : 4
    Формат : UTF-8
    Идентификатор кодека : S_TEXT/UTF8
    Идентификатор кодека/Информация : UTF-8 Plain Text
    Продолжительность : 56 м. 16 с.
    Битрейт : 55 бит/сек
    ElementCount : 805
    Размер потока : 22, 7 Кбайт (0%)
    Заголовок : English
    Язык : English
    Default : Нет
    Forced : Нет


    Онлайн видео Двойник



    Двойник/По ту сторону/Обратная сторона/Counterpart (2018) WEBRip [H.264/1080p-LQ] (сезон 2, серии 1-2 из 10) TVShows (обновляемая)
    Рейтинг →
     (голосов: 1, оценка 5/5, голосовать можно 1 раз )

    Другие торренты по теме:

  • Двойник / По ту сторону / Counterpart (2018) WEBRip [H.264 / 1080p-LQ] (сезон 2, серии 1 из 10) OMSKBIRD (обновляемая) [AD]
  • Двойник / По ту сторону / Обратная сторона / Counterpart (2018) WEB-DL [H.264 / 1080p-LQ] (сезон 2, серии 1-6 из 10) Кириллица, LostFilm (обновляемая)


    • Комментарии (0):

      Информация

      Информация

        Посетители, находящиеся в группе Гости, не могут оставлять комментарии в данной новости.

        ↓ Меню




        ↓ Опрос

        Вы добавили сайт в закладки?
        Да
        Нет


        Top 10 за месяц (Фильмы)