.
Авторизация | Регистрация
Хочешь лучшие торренты? Добавь свой email!
Добавить

Торрент скачать бесплатно

  • support: webmaster@btracker.club
» » Колдуньи (2018) WEBRip (сезон 1, серии 1-12 из 12) торрент скачать бесплатно


    Колдуньи (2018) WEBRip (сезон 1, серии 1-12 из 12) торрент скачать бесплатно

    Опубликовал: fregat | Дата: 30-12-2018, 16:13 | .torrent скачали: 0

    Колдуньи (2018) WEBRip (сезон 1, серии 1-12 из 12)Производство: Украина/ООО Новый канал
    Жанр: мелодрама, мистика, приключения
    Режиссер: Андерс Банке, Николай Михайлов

    Актеры
    Слава Красовская, Екатерина Гулякова, Ольга Цицилинская, Алина Коваленко, Артур Логай, Александр Кобзарь, Евгения Гладий

    Описание

    уществование магии будоражит сознание людей на протяжении долгого времени. Большинство мечтает обладать мистическими способностями. Люди полагают, что подобный дар избавит их от бесконечных трудностей, позволит распоряжаться своей жизнь самостоятельно и без труда избавляться от неприятностей. Кажется, быть ведьмой мечта любой женщины. Трудно представить, что незавидная участь несет за собой множество последствий. Героиням предстоит узнать это на собственном опыте.. .
    Дата мировой премьеры: 11 декабря 2018 (Новый канал, Украина)
    Продолжительность: ~00: 44: 00 серия
    Качество видео: WEBRip
    Язык озвучки: русский
    Видео: Xvid, 720x400 (16: 9), ~1714 kbps
    Аудио: AC3, 2 ch, 192 Kbps

    Общее
    Полное имя : D: Мои фильмыKoldun\'i_S1_1-12iz12_2018_XviD_WEBRipKoldun\'i_S1_01.avi
    Формат : AVI
    Формат/Информация : Audio Video Interleave
    Размер файла : 600 Мбайт
    Продолжительность : 43 м. 48 с.
    Общий поток : 1916 Кбит/сек
    Программа кодирования : VirtualDubMod 1.5.10.3www.virtualdub-fr.org|| (build 2550/release)
    Библиотека кодирования : VirtualDub2 build 41867/release
    Видео
    Идентификатор : 0
    Формат : MPEG-4 Visual
    Профиль формата : Advanced Simple@L5
    Настройки формата : BVOP2
    Параметр BVOP формата : 2
    Параметр QPel формата : Нет
    Параметр GMC формата : Без точки перехода
    Параметр матрицы формата : Default (H.263)
    Идентификатор кодека : XVID
    Идентификатор кодека/Подсказка : XviD
    Продолжительность : 43 м. 48 с.
    Битрейт : 1714 Кбит/сек
    Ширина : 720 пикселей
    Высота : 400 пикселей
    Соотношение сторон : 16: 9
    Частота кадров : 25, 000 кадров/сек
    Цветовое пространство : YUV
    Субдискретизация насыщенности : 4: 2: 0
    Битовая глубина : 8 бит
    Тип развёртки : Прогрессивная
    Метод сжатия : С потерями
    Бит/(Пиксели*Кадры) : 0.238
    Размер потока : 537 Мбайт (89%)
    Библиотека кодирования : XviD 67
    Аудио
    Идентификатор : 1
    Формат : AC-3
    Формат/Информация : Audio Coding 3
    Коммерческое название : Dolby Digital
    Идентификатор кодека : 2000
    Продолжительность : 43 м. 48 с.
    Вид битрейта : Постоянный
    Битрейт : 192 Кбит/сек
    Каналы : 2 канала
    Channel layout : L R
    Частота : 48, 0 КГц
    Частота кадров : 31, 250 кадров/сек (1536 SPF)
    Битовая глубина : 16 бит
    Метод сжатия : С потерями
    Размер потока : 60, 2 Мбайт (10%)
    Выравнивание : Разделение по промежуткам
    Продолжительность промежутка : 40 мс. (1, 00 видеокадр)
    Время предзагрузки промежутка : 500 мс.
    ServiceKind/String : Complete Main

    Скриншоты для ознакомления



    Все одноименные релизы в Клубе
    Время раздачи: с 07: 00 до 23: 00 (до появления первых 3-5 скачавших)


    Онлайн видео Колдуньи (2018) WEBRip (сезон любимого сериала 1, серии 1



    Колдуньи (2018) WEBRip (сезон 1, серии 1-12 из 12)
    Рейтинг →
     (голосов: 1, оценка 3/5, голосовать можно 1 раз )

    Другие торренты по теме:

  • Журнал | Советы колдуньи Ирины №6 (2015) [PDF] скачать через торрент бесплатно


    • Комментарии (0):

      Информация

      Информация

        Посетители, находящиеся в группе Гости, не могут оставлять комментарии в данной новости.

        ↓ Меню




        ↓ Опрос

        Вы добавили сайт в закладки?
        Да
        Нет


        Top 10 за месяц (Фильмы)