.
Авторизация | Регистрация

Торрент скачать бесплатно

  • support: webmaster@btracker.club
» » Чужая кровь (2018) HDTVRip (сезон 1, серии 1-20 из 20) торрент скачать бесплатно


    Чужая кровь (2018) HDTVRip (сезон 1, серии 1-20 из 20) торрент скачать бесплатно

    Дата: 30-12-2018, 16:13 | .torrent скачали: 0

    Чужая кровь (2018) HDTVRip (сезон 1, серии 1-20 из 20)Производство: Россия/Профит
    Жанр: драма
    Режиссер: Ольга Субботина

    Актеры
    Карина Андоленко, Павел Баршак, Дарья Мороз, Виктор Добронравов, Артём Ткаченко, Лаура Кеосаян, Анна Здор, Людмила Чурсина, Екатерина Кузнецова, Роман Полянский и др.

    Описание

    Полная драматизма история семьи русской красавицы Зины Горбатовой с 70-х годов до наших дней. За благополучным фасадом этой респектабельной семьи бушуют сокрушительные страсти. Ревность, измены, отчуждение, разводы вторгаются в отношения близких людей на протяжении нескольких десятилетий. Но любовь победит родовое проклятье, и чужие дети станут родными…

    Дата российской премьеры: 10 декабря 2018, Первый
    Продолжительность: ~00: 46: 00 серия
    Качество видео: HDTVRip
    Видео: Xvid, 720x400 (16: 9), ~1485 kbps
    Аудио: AC3, 2 ch, 192 kbps

    Общее
    Полное имя : D: Мои фильмыChuzhaja_krov\'_S1_1-20iz20_2018_XviD_HDTVRipChuzhaja_krov\'_S1_01.avi
    Формат : AVI
    Формат/Информация : Audio Video Interleave
    Размер файла : 555 Мбайт
    Продолжительность : 46 м. 0 с.
    Общий поток : 1686 Кбит/сек
    Библиотека кодирования : VirtualDub2 build 41867/release
    Видео
    Идентификатор : 0
    Формат : MPEG-4 Visual
    Профиль формата : Advanced Simple@L5
    Настройки формата : BVOP2
    Параметр BVOP формата : 2
    Параметр QPel формата : Нет
    Параметр GMC формата : Без точки перехода
    Параметр матрицы формата : Default (H.263)
    Идентификатор кодека : XVID
    Идентификатор кодека/Подсказка : XviD
    Продолжительность : 46 м. 0 с.
    Битрейт : 1485 Кбит/сек
    Ширина : 720 пикселей
    Высота : 400 пикселей
    Соотношение сторон : 16: 9
    Частота кадров : 25, 000 кадров/сек
    Цветовое пространство : YUV
    Субдискретизация насыщенности : 4: 2: 0
    Битовая глубина : 8 бит
    Тип развёртки : Прогрессивная
    Метод сжатия : С потерями
    Бит/(Пиксели*Кадры) : 0.206
    Размер потока : 489 Мбайт (88%)
    Библиотека кодирования : XviD 67
    Аудио
    Идентификатор : 1
    Формат : AC-3
    Формат/Информация : Audio Coding 3
    Коммерческое название : Dolby Digital
    Идентификатор кодека : 2000
    Продолжительность : 46 м. 0 с.
    Вид битрейта : Постоянный
    Битрейт : 192 Кбит/сек
    Каналы : 2 канала
    Channel layout : L R
    Частота : 48, 0 КГц
    Частота кадров : 31, 250 кадров/сек (1536 SPF)
    Битовая глубина : 16 бит
    Метод сжатия : С потерями
    Размер потока : 63, 2 Мбайт (11%)
    Выравнивание : Разделение по промежуткам
    Продолжительность промежутка : 40 мс. (1, 00 видеокадр)
    Время предзагрузки промежутка : 500 мс.
    ServiceKind/String : Complete Main

    Скриншоты для ознакомления



    Все одноименные релизы в Клубе
    Время раздачи: с 07: 00 до 23: 00 (до появления первых 3-5 скачавших)


    Онлайн видео Чужая кровь (2018) HDTVRip (сезон любимого сериала 1, серии 1



    Чужая кровь (2018) HDTVRip (сезон 1, серии 1-20 из 20)
    Рейтинг →
     (голосов: 1, оценка 5/5, голосовать можно 1 раз )

    Другие торренты по теме:

  • Чужая кровь / Strange Blood (2015) WEB-DLRip скачать через торрент бесплатно
  • Чужая кровь / Strange Blood (2015) WEB-DLRip скачать через торрент бесплатно
  • Сергей Самаров | Чужая кровь (2017) [FB2]
  • Чужая кровь (2018) SATRip [H.264] (сезон 1, серии 1-2 из 20) (обновляемая)


    • Комментарии (0):

      Информация

      Информация

        Посетители, находящиеся в группе Гости, не могут оставлять комментарии в данной новости.

        ↓ Меню




        ↓ Опрос

        Вы добавили сайт в закладки?
        Да
        Нет


        Top 10 за месяц (Фильмы)