.
Авторизация | Регистрация
Хочешь лучшие торренты? Добавь свой email!
Добавить

Торрент скачать бесплатно

  • support: webmaster@btracker.club
» » Морские дьяволы. Рубежи Родины (2018) WEBRip (сезон 1, серии 1-24 из 24) торрент скачать бесплатно


    Морские дьяволы. Рубежи Родины (2018) WEBRip (сезон 1, серии 1-24 из 24) торрент скачать бесплатно

    Опубликовал: fregat | Дата: 30-12-2018, 16:13 | .torrent скачали: 0

    Морские дьяволы. Рубежи Родины (2018) WEBRip (сезон 1, серии 1-24 из 24)Производство: Россия/Кинокомпания Гамма-Продакшн
    Жанр: боевик, приключения, детектив, криминал
    Режиссер: Александр Картохин, Алексей Праздников

    Актеры
    Олег Чернов, Дарья Юргенс, Иван Паршин, Александра Большакова, Виталий Бисеров, Антон Гуляев, Антон Багров, Снежана Прудько, Игорь Григорьев, Захар Черезов и др.

    Описание

    Из северных приграничных регионов Родины отряд НЕРПЫ перебрасывается на секретную военную базу, местоположение которой строго засекречено, и каждое задание НЕРП — это боевой вылет (выезд) к месту проведения операции в разных уголках нашей страны. Нерпами по-прежнему командуют Бизон, Батя и Багира. В составе отряда: Кот, Сармат, Дана, Агата и Опер.

    Возраст: 16+ (зрителям, достигшим 16 лет)
    Дата российской премьеры: 7 сентября 2018 (НТВ)
    Продолжительность: ~00: 50: 00 серия
    Качество видео: WEBRip
    Видео: Xvid, 720x400 (16: 9), ~1352 kbps
    Аудио: AC3, 2 ch, 192 kbps

    Общее
    Полное имя : D: Мои фильмыMorskie_D\'javoly_Rubezhi_Rodiny_1-24iz24_2018_XviD_WEBRip1.Операция прикрытия.(1 сер.).avi
    Формат : AVI
    Формат/Информация : Audio Video Interleave
    Размер файла : 556 Мбайт
    Продолжительность : 50 м. 0 с.
    Общий поток : 1553 Кбит/сек
    Программа кодирования : VirtualDubMod 1.5.10.3www.virtualdub-fr.org|| (build 2550/release)
    Библиотека кодирования : VirtualDub2 build 41867/release
    Видео
    Идентификатор : 0
    Формат : MPEG-4 Visual
    Профиль формата : Advanced Simple@L5
    Настройки формата : BVOP2
    Параметр BVOP формата : 2
    Параметр QPel формата : Нет
    Параметр GMC формата : Без точки перехода
    Параметр матрицы формата : Default (H.263)
    Идентификатор кодека : XVID
    Идентификатор кодека/Подсказка : XviD
    Продолжительность : 50 м. 0 с.
    Битрейт : 1352 Кбит/сек
    Ширина : 720 пикселей
    Высота : 400 пикселей
    Соотношение сторон : 16: 9
    Частота кадров : 25, 000 кадров/сек
    Цветовое пространство : YUV
    Субдискретизация насыщенности : 4: 2: 0
    Битовая глубина : 8 бит
    Тип развёртки : Прогрессивная
    Метод сжатия : С потерями
    Бит/(Пиксели*Кадры) : 0.188
    Размер потока : 483 Мбайт (87%)
    Библиотека кодирования : XviD 67
    Аудио
    Идентификатор : 1
    Формат : AC-3
    Формат/Информация : Audio Coding 3
    Коммерческое название : Dolby Digital
    Идентификатор кодека : 2000
    Продолжительность : 50 м. 0 с.
    Вид битрейта : Постоянный
    Битрейт : 192 Кбит/сек
    Каналы : 2 канала
    Channel layout : L R
    Частота : 48, 0 КГц
    Частота кадров : 31, 250 кадров/сек (1536 SPF)
    Битовая глубина : 16 бит
    Метод сжатия : С потерями
    Размер потока : 68, 7 Мбайт (12%)
    Выравнивание : Соединение по промежуткам
    Продолжительность промежутка : 40 мс. (1, 00 видеокадр)
    Время предзагрузки промежутка : 512 мс.
    ServiceKind/String : Complete Main

    Скриншоты для ознакомления



    Все одноименные релизы в Клубе
    Время раздачи: с 07: 00 до 23: 00 (до появления первых 3-5 скачавших)


    Онлайн видео Морские дьяволы. Рубежи Родины (2018) WEBRip (сезон любимого сериала 1, серии 1



    Морские дьяволы. Рубежи Родины (2018) WEBRip (сезон 1, серии 1-24 из 24)
    Рейтинг →
     (голосов: 1, оценка 4/5, голосовать можно 1 раз )

    Другие торренты по теме:

  • Морские дьяволы. Смерч 2 (2014) SATRip (серии 1-35 из 64) [обновляемая] скачать через торрент бесплатно
  • Морские дьяволы. Смерч-3 (2016) SATRip (сезон 3, серии 1-2 из 16) (обновляемая)
  • Морские дьяволы. Смерч. Судьбы (2016) SATRip [H.264] (сезон 2, серия 1-2 из 16) (Обновляемая)
  • Морские дьяволы. Смерч-3 (2015) HDTVRip [H.264 / 720p] [сезон 3, серии 1-12 из 32] [обновляемая]
  • Морские дьяволы. Смерч. Судьбы (2013) WEBRip (сезон 1, серий 1-14 из 14)
  • Морские дьяволы. Смерч. Судьбы-2 (2016) HDTVRip [H.264 / 720p-LQ] (сезон 2, серия 1-2 из 16) [Обновляемая]
  • Морские дьяволы. Смерч-3 (2015) HDTVRip [H.264 / 1080i] (сезон 3, серии 1-20 из 32) (обновляемая)
  • Морские дьяволы. Смерч. Судьбы-2 (2016) HDTVRip [H.264 / 1080i] (сезон 2, серия 1-4 из 16) (Обновляемая)


    • Комментарии (0):

      Информация

      Информация

        Посетители, находящиеся в группе Гости, не могут оставлять комментарии в данной новости.

        ↓ Меню




        ↓ Опрос

        Вы добавили сайт в закладки?
        Да
        Нет


        Top 10 за месяц (Фильмы)