.
Авторизация | Регистрация

Торрент скачать бесплатно

  • support: webmaster@btracker.club
» » Моя звезда (2018) WEB-DLRip (сезон 1, серии 1-4 из 4) торрент скачать бесплатно


    Моя звезда (2018) WEB-DLRip (сезон 1, серии 1-4 из 4) торрент скачать бесплатно

    Дата: 30-12-2018, 16:13 | .torrent скачали: 0

    Моя звезда (2018) WEB-DLRip (сезон 1, серии 1-4 из 4)Производство: Россия/Мэджик Фэктори
    Жанр: мелодрама
    Режиссер: Валерия Ивановская

    Актеры
    Мария Куликова, Андрей Чернышов, Илья Ермолов, Дарья Коныжева, Екатерина Волкова, Прохор Дубравин, Галина Сазонова и др.

    Описание

    Костя и Маша дружили со студенческих лет. И Костя был единственным, кто не замечал, что все эти годы Маша влюблена в него… Мечта девушки о взаимности гасла день за днём. И, наконец, она решила ничего больше не ждать и ответила на чувства своего давнего поклонника Кирилла. Счастливый Кирилл сделал ей предложение, вот только свадьба так и не состоялась – жених умер от сердечного приступа.
    Дата российской премьеры: 29 декабря 2018
    Релиз от: Алехаndr
    Продолжительность: ~00: 45: 00 серия
    Качество видео: WEB-DLRip
    Видео: Xvid, 720x400 (16: 9), ~1645 Kbps
    Аудио: AC3, 2 ch, 192 Kbps

    Общее
    Полное имя : D: Моя звезда (2018).by.АлехаndrСерия 1.by.Алехаndr.avi
    Формат : AVI
    Формат/Информация : Audio Video Interleave
    Размер файла : 591 Мбайт
    Продолжительность : 44 м. 42 с.
    Общий поток : 1850 Кбит/сек
    Программа кодирования : Lavf58.12.100
    Видео
    Идентификатор : 0
    Формат : xvid
    Идентификатор кодека : xvid
    Продолжительность : 44 м. 41 с.
    Битрейт : 1647 Кбит/сек
    Ширина : 720 пикселей
    Высота : 400 пикселей
    Соотношение сторон : 16: 9
    Частота кадров : 25, 000 кадров/сек
    Тип развёртки : Прогрессивная
    Бит/(Пиксели*Кадры) : 0.229
    Размер потока : 527 Мбайт (89%)
    Аудио
    Идентификатор : 1
    Формат : AC-3
    Формат/Информация : Audio Coding 3
    Коммерческое название : Dolby Digital
    Идентификатор кодека : 2000
    Продолжительность : 44 м. 42 с.
    Вид битрейта : Постоянный
    Битрейт : 192 Кбит/сек
    Каналы : 2 канала
    Channel layout : L R
    Частота : 48, 0 КГц
    Частота кадров : 31, 250 кадров/сек (1536 SPF)
    Битовая глубина : 16 бит
    Метод сжатия : С потерями
    Размер потока : 61, 4 Мбайт (10%)
    Выравнивание : Соединение по промежуткам
    Продолжительность промежутка : 32 мс. (0, 80 видеокадр)
    ServiceKind/String : Complete Main

    Скриншоты для ознакомления



    Все одноименные релизы в Клубе
    Время раздачи: 24/7 (круглосуточно) (до появления первых 3-5 скачавших)


    Онлайн видео Моя звезда (2018) WEB



    Моя звезда (2018) WEB-DLRip (сезон 1, серии 1-4 из 4)
    Рейтинг →
     (голосов: 1, оценка 5/5, голосовать можно 1 раз )

    Другие торренты по теме:

  • Звезда шерифа / Одинокая звезда / Lone Star (1996) WEB-DLRip [H.264 / 720p]
  • Звезда родилась / A Star Is Born (2018) WEB-DLRip
  • Звезда (2002) WEB-DLRip [H.264] [MP4|1800x1080]
  • Падшая звезда / Broken Star (2018) WEB-DLRip [MVO]
  • Звезда родилась / A Star Is Born (2018) WEB-DLRip [UKR, EN / Kor Sub]
  • Остроконечная звезда / Holly Star (2018) WEB-DLRip [MVO] [AD]
  • Звезда родилась / A Star Is Born (2018) WEB-DLRip [Line, AD]
  • Звезда родилась / A Star Is Born (2018) WEB-DLRip [H.264]


    • Комментарии (0):

      Информация

      Информация

        Посетители, находящиеся в группе Гости, не могут оставлять комментарии в данной новости.

        ↓ Меню




        ↓ Опрос

        Вы добавили сайт в закладки?
        Да
        Нет


        Top 10 за месяц (Фильмы)