.
Авторизация | Регистрация
Хочешь лучшие торренты? Добавь свой email!
Добавить

Торрент скачать бесплатно

  • support: webmaster@btracker.club
» » Тайны следствия (2018) WEBRip (сезон 18, серии 1-24 из 24) торрент скачать бесплатно


    Тайны следствия (2018) WEBRip (сезон 18, серии 1-24 из 24) торрент скачать бесплатно

    Опубликовал: fregat | Дата: 30-12-2018, 16:13 | .torrent скачали: 0

    Тайны следствия (2018) WEBRip (сезон 18, серии 1-24 из 24)Производство: Россия/ООО Кинопроизводственный центр, ООО Прогресс-Студия
    Жанр: криминал, детектив
    Режиссер: Егор Баринов, Жанна Коханова

    Актеры
    Анна Ковальчук, Вячеслав Захаров, Игорь Николаев, Александр Новиков , Антон Ксенев, Давид Бродский, Андрей Шарков, Степан Пивкин, Татьяна Левина , Анастасия Ступина и др.

    Описание

    Следователю Марии Сергеевне Швецовой предстоит разобраться в новых запутанных преступлениях. Тем временем у остальных героев в жизни большие перемены. Оля наконец забеременела от Курочкина, будущий папаша разрывается между домом и работой..

    Возраст: 12+ (зрителям, достигшим 12 лет)
    Продолжительность: ~00: 45: 00 серия
    Качество видео: WEBRip
    Видео: Xvid, 720x400 (16: 9), ~1289 kbps
    Аудио: AC3, 2 ch, 192 kbps

    General
    Complete name : D: Мои фильмыTajny_sledstvija_S18_1-24iz24_2018_XviD_WEBRip1.Готовые убивать.(1 сер.).avi
    Format : AVI
    Format/Info : Audio Video Interleave
    File size : 556 MiB
    Duration : 52 min 6 s
    Overall bit rate : 1 491 kb/s
    Writing application : VirtualDubMod 1.5.10.3www.virtualdub-fr.org|| (build 2550/release)
    Writing library : VirtualDub2 build 41867/release
    Video
    ID : 0
    Format : MPEG-4 Visual
    Format profile : Advanced Simple@L5
    Format settings : BVOP2
    Format settings, BVOP : 2
    Format settings, QPel : No
    Format settings, GMC : No warppoints
    Format settings, Matrix : Default (H.263)
    Codec ID : XVID
    Codec ID/Hint : XviD
    Duration : 52 min 6 s
    Bit rate : 1 289 kb/s
    Width : 720 pixels
    Height : 400 pixels
    Display aspect ratio : 16: 9
    Frame rate : 25.000 FPS
    Color space : YUV
    Chroma subsampling : 4: 2: 0
    Bit depth : 8 bits
    Scan type : Progressive
    Compression mode : Lossy
    Bits/(Pixel*Frame) : 0.179
    Stream size : 480 MiB (86%)
    Writing library : XviD 67
    Audio
    ID : 1
    Format : AC-3
    Format/Info : Audio Coding 3
    Commercial name : Dolby Digital
    Codec ID : 2000
    Duration : 52 min 6 s
    Bit rate mode : Constant
    Bit rate : 192 kb/s
    Channel(s) : 2 channels
    Channel layout : L R
    Sampling rate : 48.0 kHz
    Frame rate : 31.250 FPS (1536 SPF)
    Bit depth : 16 bits
    Compression mode : Lossy
    Stream size : 71.6 MiB (13%)
    Alignment : Split accross interleaves
    Interleave, duration : 40 ms (1.00 video frame)
    Interleave, preload duration : 500 ms
    Service kind : Complete Main


    Онлайн видео Тайны следствия (2018) WEBRip (сезон любимого сериала 18, серии 1



    Тайны следствия (2018) WEBRip (сезон 18, серии 1-24 из 24)
    Рейтинг →
     (голосов: 1, оценка 5/5, голосовать можно 1 раз )

    Другие торренты по теме:



      Комментарии (0):

      Информация

      Информация

        Посетители, находящиеся в группе Гости, не могут оставлять комментарии в данной новости.

        ↓ Меню




        ↓ Опрос

        Вы добавили сайт в закладки?
        Да
        Нет


        Top 10 за месяц (Фильмы)