.
Авторизация | Регистрация

Торрент скачать бесплатно

  • support: webmaster@btracker.club
» » Светлое Рождество / White Christmas (1954) BDRip [H.264] торрент скачать бесплатно


    Светлое Рождество / White Christmas (1954) BDRip [H.264] торрент скачать бесплатно

    Дата: 30-12-2018, 16:13 | .torrent скачали: 0

    Светлое Рождество / White Christmas (1954) BDRip [H.264]Производство: США/Paramount Pictures
    Жанр: Мюзикл, Мелодрама, Комедия
    Режиссер: Майкл Кёртиц
    Продюсер: Роберт Эмметт Долан

    Актеры
    Бинг Кросби, Дэнни Кэй, Розмари Клуни, Вера-Эллен, Дин Джэггер, Мэри Уикс, Джон Брашиа, Энн Уитфилд, Беа Аллен, Джоан Бэйли

    Описание

    После окончания Второй мировой войны два бывших призывника Боб Уоллас и Фил Дэвис объединяют свои таланты, чтобы стать лучшим поющим танцевальным дуэтом в Америке. Концерты следуют один за другим, парни становятся все популярней, и гастрольный график расписан на много дней вперед.
    Однажды они знакомятся с женским дуэтом сестер Бетти и Джуди, и это знакомство приведет молодых людей к идее создать квартет и выступить в рождественский сочельник с концертом в поддержку дома отдыха для лыжников, которым управляет их бывший командир ― отставной генерал Уоверлай.

    Возраст: 16+ (зрителям, достигшим 16 лет)
    Релиз от: Охрана(NNMCLUB)
    Продолжительность: 02: 00: 01
    Качество видео: BDRip
    Перевод: Двухголосый закадровый (П.Гланц и И.Королёва)
    Субтитры: Английские
    Видео: AVC/H.264, 1024x576, ~2750 Kbps
    Аудио 1: AC3, 6 ch, 384 Kbps, 48.0 kHz – Русский
    Аудио 2: AC3, 2 ch, 192 Kbps, 48.0 kHz – Английский

    Общее
    Уникальный идентификатор : 172725649328593829560230794015548820815 (0x81F1C001590DB2808ADD2E18B8F2CD4F)
    Полное имя : B: DownloadsСветлое Рождество. 1954. NNMCLUB.mkv
    Формат : Matroska
    Версия формата : Version 4/Version 2
    Размер файла : 2, 79 Гбайт
    Продолжительность : 2 ч. 0 м.
    Общий поток : 3328 Кбит/сек
    Дата кодирования : UTC 2018-12-27 22: 22: 46
    Программа кодирования : mkvmerge v7.9.0 (\'Birds\') 64bit
    Библиотека кодирования : libebml v1.3.1 + libmatroska v1.4.2
    Видео
    Идентификатор : 1
    Формат : AVC
    Формат/Информация : Advanced Video Codec
    Профиль формата : High@L4.1
    Настройки формата : CABAC/12 Ref Frames
    Параметр CABAC формата : Да
    Параметр RefFrames формата : 12 кадров
    Идентификатор кодека : V_MPEG4/ISO/AVC
    Продолжительность : 2 ч. 0 м.
    Битрейт : 2750 Кбит/сек
    Ширина : 1024 пикселя
    Высота : 576 пикселей
    Соотношение сторон : 16: 9
    Режим частоты кадров : Постоянный
    Частота кадров : 23, 976 (24000/1001) кадра/сек
    Цветовое пространство : YUV
    Субдискретизация насыщенности : 4: 2: 0
    Битовая глубина : 8 бит
    Тип развёртки : Прогрессивная
    Бит/(Пиксели*Кадры) : 0.194
    Размер потока : 2, 31 Гбайт (83%)
    Заголовок : White Christmas
    Библиотека кодирования : x264 core 146 r2538 121396c
    Настройки программы : cabac=1/ref=12/deblock=1: -1: -1/analyse=0x3: 0x113/me=umh/subme=10/psy=1/psy_rd=1.00: 0.10/mixed_ref=1/me_range=32/chroma_me=1/trellis=2/8x8dct=1/cqm=0/deadzone=21, 11/fast_pskip=0/chroma_qp_offset=-3/threads=6/lookahead_threads=1/sliced_threads=0/nr=0/decimate=0/interlaced=0/bluray_compat=0/constrained_intra=0/bframes=9/b_pyramid=2/b_adapt=2/b_bias=0/direct=3/weightb=1/open_gop=0/weightp=2/keyint=250/keyint_min=25/scenecut=40/intra_refresh=0/rc_lookahead=60/rc=2pass/mbtree=1/bitrate=2750/ratetol=1.0/qcomp=0.60/qpmin=0/qpmax=69/qpstep=4/cplxblur=20.0/qblur=0.5/vbv_maxrate=14000/vbv_bufsize=14000/nal_hrd=none/filler=0/ip_ratio=1.40/aq=1: 1.00
    Язык : English
    Default : Да
    Forced : Нет
    Аудио #1
    Идентификатор : 2
    Формат : AC-3
    Формат/Информация : Audio Coding 3
    Идентификатор кодека : A_AC3
    Продолжительность : 2 ч. 0 м.
    Вид битрейта : Постоянный
    Битрейт : 384 Кбит/сек
    Каналы : 6 каналов
    Расположение каналов : Front: L C R, Side: L R, LFE
    Частота : 48, 0 КГц
    Частота кадров : 31, 250 кадров/сек (1536 SPF)
    Битовая глубина : 16 бит
    Метод сжатия : С потерями
    Размер потока : 330 Мбайт (12%)
    Заголовок : Двухголосый закадровый, П.Гланц и И.Королёва
    Язык : Russian
    ServiceKind/String : Complete Main
    Default : Да
    Forced : Нет
    Аудио #2
    Идентификатор : 3
    Формат : AC-3
    Формат/Информация : Audio Coding 3
    Идентификатор кодека : A_AC3
    Продолжительность : 2 ч. 0 м.
    Вид битрейта : Постоянный
    Битрейт : 192 Кбит/сек
    Каналы : 2 канала
    Расположение каналов : Front: L R
    Частота : 48, 0 КГц
    Частота кадров : 31, 250 кадров/сек (1536 SPF)
    Битовая глубина : 16 бит
    Метод сжатия : С потерями
    Размер потока : 165 Мбайт (6%)
    Заголовок : Оригинал
    Язык : English
    ServiceKind/String : Complete Main
    Default : Нет
    Forced : Нет
    Текст
    Идентификатор : 4
    Формат : UTF-8
    Идентификатор кодека : S_TEXT/UTF8
    Идентификатор кодека/Информация : UTF-8 Plain Text
    Продолжительность : 1 ч. 57 м.
    Битрейт : 90 бит/сек
    ElementCount : 1739
    Размер потока : 78, 2 Кбайт (0%)
    Заголовок : Full
    Язык : English
    Default : Нет
    Forced : Нет

    Скриншоты для ознакомления




    Все одноименные релизы в Клубе
    Время раздачи: с 13: 00 до 01: 00 МСК, выходные круглосуточно (до появления первых 3-5 скачавших)


    Онлайн видео Светлое Рождество



    Светлое Рождество/White Christmas (1954) BDRip [H.264]
    Рейтинг →
     (голосов: 1, оценка 3/5, голосовать можно 1 раз )

    Другие торренты по теме:

  • С.М. Шестакова (сост.) | Светлое Христово Воскресение (2010) [PDF] скачать через торрент бесплатно
  • Анна Харитонова | Светлое имя — мать (1984) [PDF] скачать через торрент бесплатно
  • Станислав Говорухин | Страна воров на дороге в светлое будущее (1994) [FB2, EPUB]
  • О. Павлова (сост.) | Светлое Воскресение. Готовимся к Пасхе (2014) [PDF, DJVU]
  • Светлое будущее 2018 / A Better Tomorrow 2018 / Ying xiong ben se 2018 (2018) HDRip [MVO] [AD]


    • Комментарии (0):

      Информация

      Информация

        Посетители, находящиеся в группе Гости, не могут оставлять комментарии в данной новости.

        ↓ Меню




        ↓ Опрос

        Вы добавили сайт в закладки?
        Да
        Нет


        Top 10 за месяц (Фильмы)