.
Авторизация | Регистрация
Хочешь лучшие торренты? Добавь свой email!
Добавить

Торрент скачать бесплатно

  • support: webmaster@btracker.club
» » Учитель / Shi Fu / The Master (2015) DVDRip [MVO] торрент скачать бесплатно


    Учитель / Shi Fu / The Master (2015) DVDRip [MVO] торрент скачать бесплатно

    Опубликовал: fregat | Дата: 30-12-2018, 16:13 | .torrent скачали: 2

    Учитель / Shi Fu / The Master (2015) DVDRip [MVO]Производство: Китай/Beijing Aizhi Ganchun Art, Beijing Century Media Culture, Fueng Investment, Heyi Pictures, Magilm Pictures, Thousand Delight Pictures, Wuxi Jieao Entertainment
    Жанр: Боевик, Драма
    Режиссер: Сюй Хаофэн

    Актеры
    Ляо Фань, Сун Цзя, Цзян Вэньли, Цзинь Шицзя, Ян Сун, Хуан Цзюэ, Чжан Аоюэ, Чэнь Гуаньтай, Ма Джун, Мадина Мемет, Даррен Гросвенор

    Описание

    Чэнь Ши прибывает в город Тяньцзинь, славящийся своими боевыми искусствами, чтобы открыть здесь свою школу винчуня. Этот стиль абсолютно неизвестен на севере, и Чэнь Ши быстро покоряет своим мастерством лидера местных учителей Чжэна. Тем не менее, правила Тяньцзиня таковы, что открыть свое заведение в городе может только тот, кто победит представителей восьми местных школ – причем, не сам, а руками своего ученика. Чэнь Ши совсем не рад тому, что ему придется ждать так долго, но другого выхода у него нет – он берет в жены местную опороченную официантку, а в ученики – горячего грузчика с талантом к боевым искусствам.

    Продолжительность: 01: 49: 39
    Качество видео: DVDRip
    Перевод: Любительский, многоголосый закадровый
    Субтитры: Русские (внешние), Английские (внешние)
    Видео: Xvid, 720x304, ~1587 kbps
    Аудио: #1 AC3, 2 ch, 192 kbps - Русский
    Аудио: #2 AC3, 2 ch, 192 kbps - Китайский, отдельным файлом

    Общее
    Полное имя : F: torrentsУчитель.2015.DVDRipShi.Fu.2015.DVDRip.avi
    Формат : AVI
    Формат/Информация : Audio Video Interleave
    Размер файла : 1, 37 Гбайт
    Продолжительность : 1 ч. 49 м.
    Общий поток : 1788 Кбит/сек
    Название фильма : Shi Fu - 2015 - DVDRip
    Программа кодирования : VirtualDubMod 1.5.10.2 (build 2540/release) VirtualDubMod build 2540/release
    Видео
    Идентификатор : 0
    Формат : MPEG-4 Visual
    Профиль формата : Simple@L3
    Настройки формата : Custom Matrix
    Параметр BVOP формата : Нет
    Параметр QPel формата : Нет
    Параметр GMC формата : Без точки перехода
    Параметр матрицы формата : Выборочная
    Идентификатор кодека : XVID
    Идентификатор кодека/Подсказка : XviD
    Продолжительность : 1 ч. 49 м.
    Битрейт : 1587 Кбит/сек
    Ширина : 720 пикселей
    Высота : 304 пикселя
    Соотношение сторон : 2, 35: 1
    Частота кадров : 23, 976 (24000/1001) кадра/сек
    Цветовое пространство : YUV
    Субдискретизация насыщенности : 4: 2: 0
    Битовая глубина : 8 бит
    Тип развёртки : Прогрессивная
    Метод сжатия : С потерями
    Бит/(Пиксели*Кадры) : 0.302
    Размер потока : 1, 22 Гбайт (89%)
    Библиотека кодирования : XviD 1.0.1 (UTC 2004-06-05)
    Аудио
    Идентификатор : 1
    Формат : AC-3
    Формат/Информация : Audio Coding 3
    Коммерческое название : Dolby Digital
    Идентификатор кодека : 2000
    Продолжительность : 1 ч. 49 м.
    Вид битрейта : Постоянный
    Битрейт : 192 Кбит/сек
    Каналы : 2 канала
    Channel layout : L R
    Частота : 48, 0 КГц
    Частота кадров : 31, 250 кадров/сек (1536 SPF)
    Битовая глубина : 16 бит
    Метод сжатия : С потерями
    Размер потока : 150 Мбайт (11%)
    Выравнивание : Разделение по промежуткам
    Продолжительность промежутка : 42 мс. (1, 00 видеокадр)
    Время предзагрузки промежутка : 500 мс.
    Заголовок : RUS - MVO
    Язык : Undefined
    ServiceKind/String : Complete Main
    Общее
    Полное имя : F: torrentsУчитель.2015.DVDRipShi.Fu.2015.DVDRip.rus.srt
    Формат : SubRip
    Размер файла : 52, 8 Кбайт
    Текст
    Формат : SubRip
    Метод сжатия : Без потерь
    Общее
    Полное имя : F: torrentsУчитель.2015.DVDRipShi.Fu.2015.DVDRip_Original.ac3
    Формат : AC-3
    Формат/Информация : Audio Coding 3
    Коммерческое название : Dolby Digital
    Размер файла : 151 Мбайт
    Продолжительность : 1 ч. 49 м.
    Режим общего битрейта : Постоянный
    Общий поток : 192 Кбит/сек
    Аудио
    Формат : AC-3
    Формат/Информация : Audio Coding 3
    Коммерческое название : Dolby Digital
    Продолжительность : 1 ч. 49 м.
    Вид битрейта : Постоянный
    Битрейт : 192 Кбит/сек
    Каналы : 2 канала
    Channel layout : L R
    Частота : 48, 0 КГц
    Частота кадров : 31, 250 кадров/сек (1536 SPF)
    Битовая глубина : 16 бит
    Метод сжатия : С потерями
    Размер потока : 151 Мбайт (100%)
    ServiceKind/String : Complete Main
    Общее
    Полное имя : F: torrentsУчитель.2015.DVDRipShi.Fu.2015.DVDRip_eng.srt
    Формат : SubRip
    Размер файла : 51, 8 Кбайт
    Текст
    Формат : SubRip
    Метод сжатия : Без потерь

    Скриншоты для ознакомления






    Все одноименные релизы в Клубе
    Время раздачи: Пн-Пт с 9: 00 - 21: 00 (до появления первых 3-5 скачавших)


    Онлайн видео Учитель



    Учитель/Shi Fu/The Master (2015) DVDRip [MVO]
    Рейтинг →
     (голосов: 1, оценка 4/5, голосовать можно 1 раз )

    Другие торренты по теме:

  • Zoku Sayonara Zetsubou Sensei | Sayonara Zetsubo Sensei Extreme | Прощай, унылый учитель Экстремально! | Прощай, унылый учитель [ТВ-2] [2008, TV, 13 эп.] DVDrip 480p raw скачать через торрент бесплатно
  • Denpa Kyoushi | Ultimate Otaku Teacher | Он - сильнейший учитель! | Чокнутый учитель-отаку [2015, TV, 24 эп.] BDrip 1080p raw
  • Учитель года / School of Life (2005) BDRip скачать через торрент бесплатно
  • Маша и Медведь: Учитель танцев (2014) WEB-DLRip [H.264 / 1080p-LQ] (Серия 46)
  • Маша и Медведь: Учитель танцев (2014) WEBRip (Серия 46)
  • Маша и Медведь: Учитель танцев (2014) WEB-DLRip [H.264 / 720p-LQ] (Серия 46)
  • Маша и Медведь: Учитель танцев (Серия 46) (2014) [MP4|1920х1080] <WEB-DL H.264>
  • Маша и Медведь: Учитель танцев (Серия 46) (2014) [MP4|1280х720] <WEBRip H.264>


    • Комментарии (0):

      Информация

      Информация

        Посетители, находящиеся в группе Гости, не могут оставлять комментарии в данной новости.

        ↓ Меню




        ↓ Опрос

        Вы добавили сайт в закладки?
        Да
        Нет


        Top 10 за месяц (Фильмы)