.
Авторизация | Регистрация
Хочешь лучшие торренты? Добавь свой email!
Добавить

Торрент скачать бесплатно

  • support: webmaster@btracker.club
» » Величайший шоумен / The Greatest Showman (2017) DVD9 торрент скачать бесплатно


    Величайший шоумен / The Greatest Showman (2017) DVD9 торрент скачать бесплатно

    Опубликовал: fregat | Дата: 30-12-2018, 16:13 | .torrent скачали: 0

    Величайший шоумен / The Greatest Showman (2017) DVD9Производство: США/20th Century Fox Film Corporation, TSG Entertainment, Chernin Entertainment
    Жанр: Драма, биография, мюзикл
    Режиссер: Майкл Грэйси
    Продюсер: Питер Чернин, Тония Дэвис, Дэб Дайер

    Актеры
    Хью Джекман, Мишель Уильямс, Зак Эфрон, Зендея, Ребекка Фергюсон, Остин Джонсон, Кэмерон Сили, Кила Сеттл, Сэм Хамфри, Яхья Абдул-Матин II

    Описание

    Финеас Тейлор Барнум всегда мечтал войти в историю, но все его занятия не приносили ему удовольствия. И когда, казалось, весь мир обернулся против него, он решает пойти вслед за своей мечтой. Барнум создает завораживающее представление-сенсацию, которое стало рождением мирового шоу-бизнеса.

    Возраст: 12+ (зрителям, достигшим 12 лет)
    Рейтинг MPAA: PG (рекомендуется присутствие родителей)
    Дата российской премьеры: 4 января 2018, Двадцатый Век Фокс СНГ
    Дата выхода DVD релиза: 7 мая 2018, НД Плэй

    Продолжительность: 01: 40: 32
    Качество видео: DVD9 R5
    Перевод: Дублированный (лицензия)
    Субтитры: Русские, английские, испанские, эстонские, хинди, латышские, литовские, украинские
    Доп. материалы: Семья, стоящая за Величайшим шоуменом, Спектакль, Галереи, Музыкальный автомат, Пойте с нами
    Видео: MPEG-2, 720x576@1024x576 (PAL 16: 9), ~5200 Kbps
    Аудио 1: AC3 5.1, 448 Kbps (Английский - оригинал)
    Аудио 2: AC3 2.0, 192 Kbps (Английский - оригинал)
    Аудио 3: AC3 5.1, 384 Kbps (Испанский - дублированный)
    Аудио 4: AC3 5.1, 384 Kbps (Русский - дублированный)
    Аудио 5: AC3 5.1, 384 Kbps (Хинди - дублированный)
    Аудио 6: AC3 5.1, 384 Kbps (Украинский - дублированный)
    Аудио 7: AC3 2.0, 192 Kbps (Английский - комментарии)
    Title: The Greatest Showman (2017) DVD9 R5
    Size: 7.02 Gb ( 7 364 234, 00 KBytes ) - DVD-9
    Enabled regions: 1, 2, 3, 4, 5, 6, 7, 8
    VTS_01 :
    Play Length: 00: 00: 01
    Video: PAL 16: 9 (720x576) VBR, Auto Letterboxed
    VTS_02 :
    Play Length: 00: 00: 01+{00: 00: 01}+00: 00: 05+00: 00: 07+00: 00: 13+00: 00: 09+00: 00: 08+{00: 00: 00}+{00: 00: 00}+{00: 00: 00}+{00: 00: 00}+00: 00: 08+00: 00: 08+{00: 00: 00}+{00: 00: 00}+{00: 00: 00}+00: 00: 08+{00: 00: 00}+00: 00: 08+00: 00: 08+00: 00: 08+00: 00: 08+{00: 00: 00}+{00: 00: 00}+{00: 00: 00}+{00: 00: 00}+{00: 00: 00}+{00: 00: 00}+{00: 00: 00}+{00: 00: 00}+{00: 00: 00}+{00: 00: 00}+{00: 00: 00}+{00: 00: 00}+{00: 00: 00}+{00: 00: 00}+00: 00: 07
    Video: PAL 16: 9 (720x576) VBR, Auto PanScan
    Audio:
    Not specified (Dolby AC3, 2 ch)
    VTS_03 :
    Play Length: 00: 00: 01
    Video: PAL 16: 9 (720x576) VBR, Auto PanScan
    VTS_04 :
    Play Length: 00: 00: 11
    Video: PAL 16: 9 (720x576) VBR, Auto Letterboxed
    Audio:
    English (Dolby AC3, 6 ch)
    VTS_05 :
    Play Length: 00: 00: 01+00: 00: 06+{00: 00: 00}+{00: 00: 00}+{00: 00: 00}+{00: 00: 00}+{00: 00: 01}+00: 00: 06+00: 00: 06
    Video: PAL 16: 9 (720x576) VBR, Auto PanScan
    Audio:
    Not specified (Dolby AC3, 2 ch)
    VTS_06 :
    Play Length: 00: 13: 31
    Video: PAL 16: 9 (720x576) VBR, Auto Letterboxed
    Audio:
    English (Dolby AC3, 2 ch)
    Subtitles:
    Espanol
    Russian
    VTS_07 :
    Play Length: 00: 00: 01+00: 02: 56+00: 00: 17
    Video: PAL 16: 9 (720x576) VBR, Auto Letterboxed
    Audio:
    Not specified (Dolby AC3, 2 ch)
    Subtitles:
    Not specified
    VTS_08 :
    Play Length: 00: 00: 01+{00: 00: 01}+{00: 00: 01}+{00: 00: 01}
    Video: PAL 16: 9 (720x576) VBR, Auto Letterboxed
    VTS_09 :
    Play Length: 00: 00: 01+{00: 00: 01}+{00: 00: 01}
    Video: PAL 16: 9 (720x576) VBR, Auto Letterboxed
    VTS_10 :
    Play Length: 01: 40: 32+{01: 40: 32}+{00: 53: 55}+{00: 02: 39}+{00: 06: 11}+{00: 01: 02}+{00: 05: 00}+{00: 04: 39}+{00: 03: 53}+{00: 03: 43}+{00: 03: 47}+{00: 03: 31}+{00: 01: 16}+{00: 05: 30}+{00: 01: 25}+{00: 04: 12}+{00: 02: 44}+{00: 04: 30}
    Video: PAL 16: 9 (720x576) VBR, Auto Letterboxed
    Audio:
    English, AC3, 3/2 (L, C, R, SL, SR)+LFE ch, 448 kbps, Delay 0 mSec
    English, AC3, 2/0 (L, R) ch, 192 kbps, Delay 0 mSec
    Espanol, AC3, 3/2 (L, C, R, SL, SR)+LFE ch, 384 kbps, Delay 0 mSec
    Russian, AC3, 3/2 (L, C, R, SL, SR)+LFE ch, 384 kbps, Delay 0 mSec
    Hindi, AC3, 3/2 (L, C, R, SL, SR)+LFE ch, 384 kbps, Delay 0 mSec
    Ukrainian, AC3, 3/2 (L, C, R, SL, SR)+LFE ch, 384 kbps, Delay 0 mSec
    English, AC3, 2/0 (L, R) ch, 192 kbps, Delay 0 mSec
    Subtitles:
    English
    Espanol
    Russian
    Estonian
    Hindi
    Latvian
    Lithuanian
    Ukrainian
    VTS_11 :
    Play Length: 00: 00: 01+{00: 00: 00}+{00: 00: 00}+{00: 00: 00}+{00: 00: 00}+{00: 00: 00}+{00: 00: 00}+{00: 00: 01}
    Video: PAL 16: 9 (720x576) VBR, Auto Letterboxed
    VTS_12 :
    Play Length: 00: 00: 01
    Video: PAL 16: 9 (720x576) VBR, Auto Letterboxed
    VTS_13 :
    Play Length: 00: 00: 01
    Video: PAL 16: 9 (720x576) VBR, Auto PanScan
    VTS_14 :
    Play Length: 00: 00: 01+{00: 00: 00}+{00: 00: 00}+{00: 00: 01}
    Video: PAL 16: 9 (720x576) VBR, Auto Letterboxed
    VTS_15 :
    Play Length: 00: 00: 01+{00: 00: 01}+{00: 00: 01}
    Video: PAL 16: 9 (720x576) VBR, Auto Letterboxed
    VTS_16 :
    Play Length: 00: 07: 31+00: 06: 44+00: 05: 21+00: 05: 49+00: 05: 50+{00: 30: 56}
    Video: PAL 16: 9 (720x576) VBR, Auto Letterboxed
    Audio:
    English (Dolby AC3, 2 ch)
    Subtitles:
    Espanol
    Russian
    VTS_17 :
    Play Length: 00: 00: 01+{00: 00: 01}
    Video: PAL 16: 9 (720x576) VBR, Auto Letterboxed
    VTS_18 :
    Play Length: 00: 00: 01+00: 06: 15+00: 06: 20+00: 06: 20+00: 06: 20+00: 06: 20+00: 04: 16
    Video: PAL 16: 9 (720x576) VBR, Auto Letterboxed
    Audio:
    Not specified (Dolby AC3, 2 ch)
    Subtitles:
    Not specified
    VTS_19 :
    Play Length: 00: 00: 01+00: 00: 36+00: 00: 36+00: 00: 36+00: 00: 36+00: 00: 36+00: 00: 24
    Video: PAL 16: 9 (720x576) VBR, Auto Letterboxed
    Subtitles:
    Not specified
    Общее
    Полное имя : V: TorrentsThe Greatest Showman (2017) DVD9 R5VIDEO_TSVTS_10_1.VOB
    Формат : MPEG-PS
    Размер файла : 1023 Мбайт
    Продолжительность : 18 м. 22 с.
    Режим общего битрейта : Переменный
    Общий поток : 7790 Кбит/сек
    Видео
    Идентификатор : 224 (0xE0)
    Формат : MPEG Video
    Версия формата : Version 2
    Профиль формата : Main@Main
    Настройки формата : CustomMatrix/BVOP
    Параметр BVOP формата : Да
    Параметр матрицы формата : Выборочная
    Параметр GOP формата : Variable
    Продолжительность : 18 м. 22 с.
    Вид битрейта : Переменный
    Битрейт : 5267 Кбит/сек
    Максимальный битрейт : 6800 Кбит/сек
    Ширина : 720 пикселей
    Высота : 576 пикселей
    Соотношение сторон : 16: 9
    Частота кадров : 25, 000 кадров/сек
    Стандарт вещания : PAL
    Цветовое пространство : YUV
    Субдискретизация насыщенности : 4: 2: 0
    Битовая глубина : 8 бит
    Тип развёртки : Прогрессивная
    Порядок развёртки : Нижнее поле первое
    Метод сжатия : С потерями
    Бит/(Пиксели*Кадры) : 0.508
    Временной код первого кадра : 00: 01: 34: 02
    Оригинал временного кода : Group of pictures t_head
    GOP, открыто/закрыто : Открыто
    GOP, открыто/закрыто на первом кадре : Закрыто
    Размер потока : 692 Мбайт (68%)
    Аудио #1
    Идентификатор : 189 (0xBD)-128 (0x80)
    Формат : AC-3
    Формат/Информация : Audio Coding 3
    Параметр Endianness формата : Big
    Режим смешивания : DVD-Video
    Продолжительность : 18 м. 21 с.
    Вид битрейта : Постоянный
    Битрейт : 448 Кбит/сек
    Каналы : 6 каналов
    Расположение каналов : Front: L C R, Side: L R, LFE
    Частота : 48, 0 КГц
    Частота кадров : 31, 250 кадров/сек (1536 SPF)
    Битовая глубина : 16 бит
    Метод сжатия : С потерями
    Размер потока : 58, 8 Мбайт (6%)
    ServiceKind/String : Complete Main
    Аудио #2
    Идентификатор : 189 (0xBD)-129 (0x81)
    Формат : AC-3
    Формат/Информация : Audio Coding 3
    Параметр Endianness формата : Big
    Режим смешивания : DVD-Video
    Продолжительность : 18 м. 21 с.
    Вид битрейта : Постоянный
    Битрейт : 192 Кбит/сек
    Каналы : 2 канала
    Расположение каналов : Front: L R
    Частота : 48, 0 КГц
    Частота кадров : 31, 250 кадров/сек (1536 SPF)
    Битовая глубина : 16 бит
    Метод сжатия : С потерями
    Размер потока : 25, 2 Мбайт (2%)
    ServiceKind/String : Complete Main
    Аудио #3
    Идентификатор : 189 (0xBD)-130 (0x82)
    Формат : AC-3
    Формат/Информация : Audio Coding 3
    Параметр Endianness формата : Big
    Режим смешивания : DVD-Video
    Продолжительность : 18 м. 21 с.
    Вид битрейта : Постоянный
    Битрейт : 384 Кбит/сек
    Каналы : 6 каналов
    Расположение каналов : Front: L C R, Side: L R, LFE
    Частота : 48, 0 КГц
    Частота кадров : 31, 250 кадров/сек (1536 SPF)
    Битовая глубина : 16 бит
    Метод сжатия : С потерями
    Размер потока : 50, 4 Мбайт (5%)
    ServiceKind/String : Complete Main
    Аудио #4
    Идентификатор : 189 (0xBD)-131 (0x83)
    Формат : AC-3
    Формат/Информация : Audio Coding 3
    Параметр Endianness формата : Big
    Режим смешивания : DVD-Video
    Продолжительность : 18 м. 21 с.
    Вид битрейта : Постоянный
    Битрейт : 384 Кбит/сек
    Каналы : 6 каналов
    Расположение каналов : Front: L C R, Side: L R, LFE
    Частота : 48, 0 КГц
    Частота кадров : 31, 250 кадров/сек (1536 SPF)
    Битовая глубина : 16 бит
    Метод сжатия : С потерями
    Размер потока : 50, 4 Мбайт (5%)
    ServiceKind/String : Complete Main
    Аудио #5
    Идентификатор : 189 (0xBD)-132 (0x84)
    Формат : AC-3
    Формат/Информация : Audio Coding 3
    Параметр Endianness формата : Big
    Режим смешивания : DVD-Video
    Продолжительность : 18 м. 21 с.
    Вид битрейта : Постоянный
    Битрейт : 384 Кбит/сек
    Каналы : 6 каналов
    Расположение каналов : Front: L C R, Side: L R, LFE
    Частота : 48, 0 КГц
    Частота кадров : 31, 250 кадров/сек (1536 SPF)
    Битовая глубина : 16 бит
    Метод сжатия : С потерями
    Размер потока : 50, 4 Мбайт (5%)
    ServiceKind/String : Complete Main
    Аудио #6
    Идентификатор : 189 (0xBD)-133 (0x85)
    Формат : AC-3
    Формат/Информация : Audio Coding 3
    Параметр Endianness формата : Big
    Режим смешивания : DVD-Video
    Продолжительность : 18 м. 21 с.
    Вид битрейта : Постоянный
    Битрейт : 384 Кбит/сек
    Каналы : 6 каналов
    Расположение каналов : Front: L C R, Side: L R, LFE
    Частота : 48, 0 КГц
    Частота кадров : 31, 250 кадров/сек (1536 SPF)
    Битовая глубина : 16 бит
    Метод сжатия : С потерями
    Размер потока : 50, 4 Мбайт (5%)
    ServiceKind/String : Complete Main
    Аудио #7
    Идентификатор : 189 (0xBD)-134 (0x86)
    Формат : AC-3
    Формат/Информация : Audio Coding 3
    Параметр Endianness формата : Big
    Режим смешивания : DVD-Video
    Продолжительность : 18 м. 21 с.
    Вид битрейта : Постоянный
    Битрейт : 192 Кбит/сек
    Каналы : 2 канала
    Расположение каналов : Front: L R
    Частота : 48, 0 КГц
    Частота кадров : 31, 250 кадров/сек (1536 SPF)
    Битовая глубина : 16 бит
    Метод сжатия : С потерями
    Размер потока : 25, 2 Мбайт (2%)
    ServiceKind/String : Complete Main
    Текст #1
    Идентификатор : 189 (0xBD)-44 (0x2C)
    Формат : RLE
    Формат/Информация : Run-length encoding
    Режим смешивания : DVD-Video
    Продолжительность : 18 м. 14 с.
    Задержка видео : 4 с. 360 мс.
    Текст #2
    Идентификатор : 189 (0xBD)-45 (0x2D)
    Формат : RLE
    Формат/Информация : Run-length encoding
    Режим смешивания : DVD-Video
    Продолжительность : 18 м. 14 с.
    Задержка видео : 4 с. 280 мс.
    Текст #3
    Идентификатор : 189 (0xBD)-32 (0x20)
    Формат : RLE
    Формат/Информация : Run-length encoding
    Режим смешивания : DVD-Video
    Текст #4
    Идентификатор : 189 (0xBD)-33 (0x21)
    Формат : RLE
    Формат/Информация : Run-length encoding
    Режим смешивания : DVD-Video
    Текст #5
    Идентификатор : 189 (0xBD)-34 (0x22)
    Формат : RLE
    Формат/Информация : Run-length encoding
    Режим смешивания : DVD-Video
    Текст #6
    Идентификатор : 189 (0xBD)-35 (0x23)
    Формат : RLE
    Формат/Информация : Run-length encoding
    Режим смешивания : DVD-Video
    Текст #7
    Идентификатор : 189 (0xBD)-36 (0x24)
    Формат : RLE
    Формат/Информация : Run-length encoding
    Режим смешивания : DVD-Video
    Текст #8
    Идентификатор : 189 (0xBD)-37 (0x25)
    Формат : RLE
    Формат/Информация : Run-length encoding
    Режим смешивания : DVD-Video
    Текст #9
    Идентификатор : 189 (0xBD)-38 (0x26)
    Формат : RLE
    Формат/Информация : Run-length encoding
    Режим смешивания : DVD-Video
    Текст #10
    Идентификатор : 189 (0xBD)-39 (0x27)
    Формат : RLE
    Формат/Информация : Run-length encoding
    Режим смешивания : DVD-Video
    Меню


    Онлайн видео Величайший шоумен



    Величайший шоумен/The Greatest Showman (2017) DVD9
    Рейтинг →
     (голосов: 1, оценка 4/5, голосовать можно 1 раз )

    Другие торренты по теме:

  • Величайший шоумен / The Greatest Showman (2017) WEBRip [H.264 / 720p-LQ] [EN / KOR Sub]
  • Величайший шоумен / The Greatest Showman (2017) WEBRip [H.264 / 1080p-LQ] [MVO] [AD]
  • Величайший шоумен / The Greatest Showman (2017) WEB-DLRip [H.264 / 1080p-LQ] [Line] [AD]
  • Величайший шоумен / The Greatest Showman (2017) HDRip [MVO]
  • Величайший шоумен / The Greatest Showman (2017) BDRip [H.264 / 1080p] [MVO] [PR]
  • Величайший шоумен / The Greatest Showman (2017) BDRemux [H.264 / 1080p] [EN / EN, Fr, Sp Sub]
  • Величайший шоумен / The Greatest Showman (2017) BDRip [H.264 / 1080p] [MVO]
  • Величайший шоумен / The Greatest Showman (2017) BDRemux [H.264 / 1080p] [MVO]


    • Комментарии (0):

      Информация

      Информация

        Посетители, находящиеся в группе Гости, не могут оставлять комментарии в данной новости.

        ↓ Меню




        ↓ Опрос

        Вы добавили сайт в закладки?
        Да
        Нет


        Top 10 за месяц (Фильмы)