.
Авторизация | Регистрация
Хочешь лучшие торренты? Добавь свой email!
Добавить

Торрент скачать бесплатно

  • support: webmaster@btracker.club
» » Бешеный бык / Seongnan hwangso / Unstoppable (2018) WEBRip [H.264 / 1080p-LQ] [KOR / RU Sub] торрент скачать бесплатно


    Бешеный бык / Seongnan hwangso / Unstoppable (2018) WEBRip [H.264 / 1080p-LQ] [KOR / RU Sub] торрент скачать бесплатно

    Опубликовал: fregat | Дата: 30-12-2018, 16:13 | .torrent скачали: 2

    Бешеный бык / Seongnan hwangso / Unstoppable (2018) WEBRip [H.264 / 1080p-LQ] [KOR / RU Sub]Производство: Южная Корея/BA Entertainment, Showbox Entertainment
    Жанр: боевик, криминал
    Режиссер: Ким Мин-хо

    Актеры
    Ма Дон-сок, Сон Джи-хё, Ким Сон-о, Ким Мин-джэ, Пак Чи-хван, Пэ Ну-ри, Чон Ин-ги, Пак Чи-хун, Лим Хён-джун, Чон Хэ-гюн

    Описание

    Дон-чхоль когда-то был бандитом, но остепенился: теперь он счастливо женат и ведёт легальный бизнес. Однажды мужчина возвращается домой и обнаруживает, что дом в полном разгроме, а любимая жена пропала. Дон-чхоль пытается разобраться законными методами, но на пороге полицейского участка ему звонит неизвестный и в обмен на крупную сумму советует отказаться от поисков супруги. Придется бывшему бандиту достать старую кожанку и напомнить местной организованной преступности, кого бояться надо.

    Продолжительность: 01: 56: 10
    Качество видео: WEBRip
    Перевод: отсутствует
    Язык озвучки: корейский
    Субтитры: русские (ФСГ Zipper)
    Видео: AVC/H.264, 1920x1080, ~5120 kbps
    Аудио: AAC, 2 ch, 320 kbps

    Код: выделить все
    Общее
    Уникальный идентификатор : 220919775057620755729896660868764640280 (0xA63399DBBB17D24F4080F855C859A418)
    Полное имя : Unstoppable.2018.W3BRip.1080p.x264.SUB.mkv
    Формат : Matroska
    Версия формата : Version 4
    Размер файла : 4, 42 Гбайт
    Продолжительность : 1 ч. 56 м.
    Общий поток : 5447 Кбит/сек
    Дата кодирования : UTC 2018-12-29 13:28:39
    Программа кодирования : mkvmerge v28.2.0 (\'The Awakening\') 64-bit
    Библиотека кодирования : libebml v1.3.6 + libmatroska v1.4.9
    Attachments : Arsenal-BoldItalic.otf/Calibri Bold.ttf/Calibri Bold Italic.ttf/Franklin Gothic Medium Cond.ttf
    Видео
    Идентификатор : 1
    Формат : AVC
    Формат/Информация : Advanced Video Codec
    Профиль формата : High@L4
    Настройки формата : CABAC/4 Ref Frames
    Параметр CABAC формата : Да
    Параметр RefFrames формата : 4 кадра
    Идентификатор кодека : V_MPEG4/ISO/AVC
    Продолжительность : 1 ч. 56 м.
    Битрейт : 5120 Кбит/сек
    Ширина : 1920 пикселей
    Высота : 1080 пикселей
    Соотношение сторон : 16:9
    Режим частоты кадров : Постоянный
    Частота кадров : 23, 976 (24000/1001) кадра/сек
    Цветовое пространство : YUV
    Субдискретизация насыщенности : 4:2:0
    Битовая глубина : 8 бит
    Тип развёртки : Прогрессивная
    Бит/(Пиксели*Кадры) : 0.103
    Размер потока : 4, 16 Гбайт (94%)
    Библиотека кодирования : x264 core 148 r2768 d32d7bf
    Настройки программы : cabac=1/ref=3/deblock=1:0:0/analyse=0x3:0x113/me=hex/subme=8/psy=1/psy_rd=1.00:0.00/mixed_ref=1/me_range=16/chroma_me=1/trellis=2/8x8dct=1/cqm=0/deadzone=21, 11/fast_pskip=1/chroma_qp_offset=-2/threads=24/lookahead_threads=4/sliced_threads=0/nr=0/decimate=1/interlaced=0/bluray_compat=0/stitchable=1/constrained_intra=0/bframes=3/b_pyramid=2/b_adapt=1/b_bias=0/direct=3/weightb=1/open_gop=0/weightp=2/keyint=23/keyint_min=12/scenecut=40/intra_refresh=0/rc_lookahead=23/rc=2pass/mbtree=1/bitrate=5120/ratetol=1.0/qcomp=0.60/qpmin=0/qpmax=69/qpstep=4/cplxblur=20.0/qblur=0.5/ip_ratio=1.40/aq=1:1.00
    Язык : Korean
    Default : Да
    Forced : Нет
    Аудио
    Идентификатор : 2
    Формат : AAC LC
    Формат/Информация : Advanced Audio Codec Low Complexity
    Идентификатор кодека : A_AAC-2
    Продолжительность : 1 ч. 56 м.
    Битрейт : 320 Кбит/сек
    Каналы : 2 канала
    Channel layout : L R
    Частота : 48, 0 КГц
    Частота кадров : 46, 875 кадров/сек (1024 SPF)
    Метод сжатия : С потерями
    Задержка видео : -83 мс.
    Размер потока : 266 Мбайт (6%)
    Язык : Korean
    Default : Да
    Forced : Нет
    Текст
    Идентификатор : 3
    Формат : ASS
    Идентификатор кодека : S_TEXT/ASS
    Идентификатор кодека/Информация : Advanced Sub Station Alpha
    Продолжительность : 1 ч. 53 м.
    Битрейт : 121 бит/сек
    ElementCount : 1421
    Метод сжатия : Без потерь
    Размер потока : 101 Кбайт (0%)
    Заголовок : [FSG Zipper] [Полные]
    Язык : Russian
    Default : Да
    Forced : Нет


    Скриншоты для ознакомления



    Все одноименные релизы в Клубе
    Время раздачи: с 10: 00 до 22: 00 (до появления первых 3-5 скачавших)


    Онлайн видео Бешеный бык



    Бешеный бык/Seongnan hwangso/Unstoppable (2018) WEBRip [H.264/1080p-LQ] [KOR/RU Sub]
    Рейтинг →
     (голосов: 1, оценка 3/5, голосовать можно 1 раз )

    Другие торренты по теме:

  • Бешеный бык / Seongnan hwangso / Unstoppable (2018) WEB-DL [H.264 / 720р-LQ] [MVO] [AD]


    • Комментарии (0):

      Информация

      Информация

        Посетители, находящиеся в группе Гости, не могут оставлять комментарии в данной новости.

        ↓ Меню




        ↓ Опрос

        Вы добавили сайт в закладки?
        Да
        Нет


        Top 10 за месяц (Фильмы)