.
Авторизация | Регистрация

Торрент скачать бесплатно

  • support: webmaster@btracker.club
» » Рыцарь дня / Knight and Day (2010) WEB-DLRip [H.264] [Open Matte] торрент скачать бесплатно


    Рыцарь дня / Knight and Day (2010) WEB-DLRip [H.264] [Open Matte] торрент скачать бесплатно

    Дата: 30-12-2018, 16:13 | .torrent скачали: 0

    Рыцарь дня / Knight and Day (2010) WEB-DLRip [H.264] [Open Matte]Производство: США/Twentieth Century Fox Film Corporation
    Жанр: Боевик, Триллер, Комедия, Приключения
    Режиссер: Джеймс Мэнголд

    Актеры
    Том Круз, Кэмерон Диаз, Питер Сарсгаард, Жорди Молья, Виола Дэвис, Пол Дано, Фальк Хеншел, Марк Блукас, Ленни Лофтин, Мэгги Грэйс

    Описание

    Случайная встреча в аэропорту одинокой женщины Джун Хэвенс и обаятельного агента Миллера приводит к тому, что им приходится вместе колесить по всему свету, спасаясь от наемных убийц и пытаясь уберечь от коварных злодеев мощную батарею, которая является уникальным источником энергии.
    Попадая в бесчисленные передряги и постоянно находясь на волоске от смерти, Джун все время мучается в догадках, кто же на самом деле ее неугомонный спутник — спаситель человечества, предатель или просто-напросто сумасшедший…

    Возраст: 12+ (зрителям, достигшим 12 лет)
    Рейтинг MPAA: PG-13 (детям до 13 лет просмотр нежелателен)
    Продолжительность: 01: 49: 43
    Качество видео: WEB-DLRip-AVC
    Перевод: Дублированный
    Субтитры: нет
    Видео: AVC/H.264, 1024x576, ~2143 kbps
    Аудио: AC3, 6 ch, 640 Kbps - русский
    Blu-ray vs Open Matte

    General
    Unique ID : 302918928633878819636209672857294628895 (0xE3E4104402DEC1B98BA638313E66681F)
    Complete name : D: VHSникРыцарь дня_2010_WEB_DLRIP-AVC_O.M_-=DoMiNo=-.mkv
    Format : Matroska
    Format version : Version 4/Version 2
    File size : 2.18 GiB
    Duration : 1 h 49 min
    Overall bit rate : 2 839 kb/s
    Movie name : Рыцарь дня
    Description : Главная героиня, одинокая женщина Джун, пытается найти счастье в личной жизни. Но она вряд ли ожидала, чем обернётся очередное свидание с потенциальным кандидатом Милнером. Он оказывается настоящим шпионом и прихватывает Джун с собой в довольно жесткое путешествие вокруг света с целью защитить тайну источника бесперебойной энергии.
    Writing application : XviD4PSP 7.0.455 DAILY
    Writing library : Lavf57.71.100/Lavf57.71.100
    ErrorDetectionType : Per level 1
    Attachments : poster.jpg
    ACTORS : Tom Cruise, Cameron Diaz, Peter Sarsgaard, Viola Davis, Jordi Mollà, Paul Dano, Maggie Grace, Marc Blucas, Celia Weston, Dale Dye, Falk Hentschel, Lennie Loftin, Rich Manley, Gal Gadot, Jack O\'Connell, Trevor Loomis, Nilaja Sun, Jerrell Lee Wesley, Adam Gregory
    COUNTRY : United States
    DATE : 2010-06-15
    DIRECTOR : James Mangold
    ENCODING_INFO : MATROSKA, WEBM MKV Пользовательский/H264 X264 CRF 21.0 Пользовательский 2/AC3 COPY Безопасное
    GENRE : боевик, комедия
    HD_VIDEO : 1
    ITUNEXTC : PG13,
    Language : und
    MEDIA_TYPE : 9
    ORIGINAL_TITLE : Knight and Day
    PRODUCER : Steve Pink, Todd Garner, Cathy Konrad
    PUBLISHER : Pink Machine, Tree Line Films, Dune Entertainment, Regency Enterprises, 20th Century Fox
    RATING : 6.99
    Video
    ID : 1
    Format : AVC
    Format/Info : Advanced Video Codec
    Format profile : High@L4.1
    Format settings, CABAC : Yes
    Format settings, ReFrames : 10 frames
    Codec ID : V_MPEG4/ISO/AVC
    Duration : 1 h 49 min
    Bit rate : 2 143 kb/s
    Width : 1 024 pixels
    Height : 576 pixels
    Display aspect ratio : 16: 9
    Frame rate mode : Constant
    Frame rate : 23.976 (24000/1001) FPS
    Color space : YUV
    Chroma subsampling : 4: 2: 0
    Bit depth : 8 bits
    Scan type : Progressive
    Bits/(Pixel*Frame) : 0.152
    Stream size : 1.64 GiB (75%)
    Title : RIP_BY_-=DoMiNo=-
    Writing library : x264 core 155 r2901M 7d0ff22
    Encoding settings : cabac=1/ref=10/deblock=1: -3: -3/analyse=0x3: 0x133/me=umh/subme=10/psy=1/psy_rd=1.00: 0.10/mixed_ref=1/me_range=32/chroma_me=1/trellis=2/8x8dct=1/cqm=0/deadzone=21, 11/fast_pskip=1/chroma_qp_offset=-3/threads=5/lookahead_threads=1/sliced_threads=0/nr=0/decimate=1/interlaced=0/bluray_compat=0/constrained_intra=0/bframes=10/b_pyramid=2/b_adapt=2/b_bias=0/direct=1/weightb=1/open_gop=0/weightp=2/keyint=240/keyint_min=24/scenecut=40/intra_refresh=0/rc=crf/mbtree=0/crf=21.0/qcomp=0.60/qpmin=0/qpmax=69/qpstep=4/ip_ratio=1.40/pb_ratio=1.30/aq=3: 1.00
    Default : Yes
    Forced : No
    Color range : Limited
    Color primaries : BT.709
    Transfer characteristics : BT.709
    Matrix coefficients : BT.709
    Audio
    ID : 2
    Format : AC-3
    Format/Info : Audio Coding 3
    Format settings, Endianness : Big
    Codec ID : A_AC3
    Duration : 1 h 49 min
    Bit rate mode : Constant
    Bit rate : 640 kb/s
    Channel(s) : 6 channels
    Channel positions : Front: L C R, Side: L R, LFE
    Sampling rate : 48.0 kHz
    Frame rate : 31.250 FPS (1536 spf)
    Bit depth : 16 bits
    Compression mode : Lossy
    Stream size : 502 MiB (23%)
    Title : DUB
    Language : Russian
    Service kind : Complete Main
    Default : Yes
    Forced : No
    Menu
    00: 00: 00.000 : : Глава 1
    00: 09: 57.097 : : Глава 2
    00: 20: 33.441 : : Глава 3
    00: 31: 07.741 : : Глава 4
    00: 41: 24.190 : : Глава 5
    00: 51: 38.262 : : Глава 6
    01: 01: 54.044 : : Глава 7
    01: 12: 05.822 : : Глава 8
    01: 22: 22.187 : : Глава 9
    01: 32: 48.438 : : Глава 10
    01: 42: 59.840 : : Глава 11


    Онлайн видео Рыцарь дня



    Рыцарь дня/Knight and Day (2010) WEB-DLRip [H.264] [Open Matte]
    Рейтинг →
     (голосов: 1, оценка 4/5, голосовать можно 1 раз )

    Другие торренты по теме:

  • Рыцарь дня / Knight and Day (2010) BDRip [H.264 / MPEG-4 AVC] [Hi10P] [Extended Cut] скачать через торрент бесплатно
  • Zero no Tsukaima: Futatsuki no Kishi | Familiar of Zero: Knight of the Twin Moons | Подручный Луизы-Нулизы: Рыцарь Двух Лун (TV-2) [2007, TV, 12 эп.] BDrip 720p raw скачать через торрент бесплатно
  • Темный рыцарь: Возрождение легенды / The Dark Knight Rises (2012) [H.264 / 720p] [IMAX Edition] [hand made 60fps] скачать через торрент бесплатно
  • Бэтмен: Рыцарь Аркхема / Batman: Arkham Knight (2015) WEBRip [H.264 / 1080p-LQ] [Gameplay] скачать через торрент бесплатно
  • Темный рыцарь: Возрождение легенды / The Dark Knight Rises (2012) HDRip [IMAX Edition] [AVO] скачать через торрент бесплатно
  • Рыцарь Майк / Mike the Knight (2012-2013) SATRip (2 сезон, 50 серий из 52) скачать через торрент бесплатно
  • Batman: Arkham Knight / Бэтмен: Рыцарь Аркхема (2015) [Ru / En] (1.0.4.5 / dlc) Repack R.G. Games [Premium Edition] скачать через торрент бесплатно
  • Робби Томпсон, Ариэль Оливетти | Venom: Space Knight / Веном: Космический Рыцарь (2015) [JPG] скачать через торрент бесплатно


    • Комментарии (0):

      Информация

      Информация

        Посетители, находящиеся в группе Гости, не могут оставлять комментарии в данной новости.

        ↓ Меню




        ↓ Опрос

        Вы добавили сайт в закладки?
        Да
        Нет


        Top 10 за месяц (Фильмы)