.
Авторизация | Регистрация

Торрент скачать бесплатно

  • support: webmaster@btracker.club
» » Живая сталь / Real Steel (2011) WEBRip [H.264] [Open Matte] торрент скачать бесплатно


    Живая сталь / Real Steel (2011) WEBRip [H.264] [Open Matte] торрент скачать бесплатно

    Дата: 30-12-2018, 16:13 | .torrent скачали: 1

    Живая сталь / Real Steel (2011) WEBRip [H.264] [Open Matte]Производство: США, Индия/DreamWorks, Touchstone Pictures, Reliance Entertainment
    Жанр: Фантастика, Боевик, Семейный
    Режиссер: Шон Леви

    Актеры
    Хью Джекман, Дакота Гойо, Эванджелин Лилли, Энтони Маки, Кевин Дюран, Хоуп Дэвис, Джеймс Ребхорн, Карл Юн, Ольга Фонда, Джон Гэйтинс

    Описание

    События фильма происходят в будущем, где бокс запрещен за негуманностью и заменен боями 2000-фунтовых роботов, управляемых людьми. Бывший боксер, а теперь промоутер, переметнувшийся в Робобокс, решает, что наконец нашел своего чемпиона, когда ему попадается выбракованный, но очень способный робот. Одновременно на жизненном пути героя возникает 11-летний парень, оказывающийся его сыном. И по мере того, как машина пробивает свой путь к вершине, обретшие друг друга отец и сын учатся дружить.

    Возраст: 12+ (зрителям, достигшим 12 лет)
    Рейтинг MPAA: PG-13 (детям до 13 лет просмотр нежелателен)
    Продолжительность: 02: 01: 44
    Качество видео: WEB-Rip-AVC
    Перевод: Дублированный
    Субтитры: Русские, английские
    Видео: AVC/H.264, 1024x576, ~2113 kbps
    Аудио: AC3, 6 ch, 448 Kbps - русский

    General
    Unique ID : 277191285413419475073320858628755911948 (0xD08919854A29724BE6D8A457E781750C)
    Complete name : D: VHSникReal.Steel.2011.x264.WEB-Rip.(AVC).OlLanDGroup.mkv
    Format : Matroska
    Format version : Version 4/Version 2
    File size : 2.18 GiB
    Duration : 2 h 1 min
    Overall bit rate : 2 563 kb/s
    Movie name : Real.Steel.2011x264.Rip by Vovan366
    Encoded date : UTC 2018-07-04 15: 49: 52
    Writing application : mkvmerge v23.0.0 (\'The Bride Said No\') 64-bit
    Writing library : libebml v1.3.6 + libmatroska v1.4.9
    Cover : Yes
    Attachments : Cover - Real.Steel.png
    Video
    ID : 1
    Format : AVC
    Format/Info : Advanced Video Codec
    Format profile : High@L4.1
    Format settings, CABAC : Yes
    Format settings, ReFrames : 9 frames
    Codec ID : V_MPEG4/ISO/AVC
    Duration : 2 h 1 min
    Bit rate : 2 113 kb/s
    Width : 1 024 pixels
    Height : 576 pixels
    Display aspect ratio : 16: 9
    Frame rate mode : Constant
    Frame rate : 25.000 FPS
    Color space : YUV
    Chroma subsampling : 4: 2: 0
    Bit depth : 8 bits
    Scan type : Progressive
    Bits/(Pixel*Frame) : 0.143
    Stream size : 1.80 GiB (82%)
    Title : Real.Steel.2011x264.WEB-Rip.(AVC).OlLanDGroup
    Writing library : x264 core 146 r2538 121396c
    Encoding settings : cabac=1/ref=9/deblock=1: -3: -3/analyse=0x3: 0x133/me=umh/subme=11/psy=1/psy_rd=1.00: 0.00/mixed_ref=1/me_range=32/chroma_me=1/trellis=2/8x8dct=1/cqm=0/deadzone=21, 11/fast_pskip=0/chroma_qp_offset=-2/threads=6/lookahead_threads=1/sliced_threads=0/nr=0/decimate=0/interlaced=0/bluray_compat=0/constrained_intra=0/bframes=10/b_pyramid=2/b_adapt=1/b_bias=0/direct=3/weightb=1/open_gop=0/weightp=2/keyint=250/keyint_min=25/scenecut=40/intra_refresh=0/rc_lookahead=40/rc=2pass/mbtree=0/bitrate=2113/ratetol=1.0/qcomp=0.60/qpmin=0/qpmax=69/qpstep=4/cplxblur=20.0/qblur=0.5/vbv_maxrate=50000/vbv_bufsize=52500/nal_hrd=none/filler=0/ip_ratio=1.40/pb_ratio=1.30/aq=1: 1.00
    Default : Yes
    Forced : No
    Audio
    ID : 2
    Format : AC-3
    Format/Info : Audio Coding 3
    Format settings, Endianness : Big
    Codec ID : A_AC3
    Duration : 2 h 1 min
    Bit rate mode : Constant
    Bit rate : 448 kb/s
    Channel(s) : 6 channels
    Channel positions : Front: L C R, Side: L R, LFE
    Sampling rate : 48.0 kHz
    Frame rate : 31.250 FPS (1536 spf)
    Bit depth : 16 bits
    Compression mode : Lossy
    Stream size : 390 MiB (17%)
    Title : Dub | DD 5.1 @ 448 kbps
    Language : Russian
    Service kind : Complete Main
    Default : Yes
    Forced : No
    Text #1
    ID : 3
    Format : UTF-8
    Codec ID : S_TEXT/UTF8
    Codec ID/Info : UTF-8 Plain Text
    Duration : 1 h 53 min
    Bit rate : 108 b/s
    Count of elements : 1635
    Stream size : 90.7 KiB (0%)
    Language : Russian
    Default : No
    Forced : No
    Text #2
    ID : 4
    Format : UTF-8
    Codec ID : S_TEXT/UTF8
    Codec ID/Info : UTF-8 Plain Text
    Duration : 1 h 52 min
    Bit rate : 66 b/s
    Count of elements : 1486
    Stream size : 54.6 KiB (0%)
    Language : English
    Default : No
    Forced : No

    Скриншоты для ознакомления



    Все одноименные релизы в Клубе
    Время раздачи: 24/7 (до появления первых 3-5 скачавших)


    Онлайн видео Живая сталь



    Живая сталь/Real Steel (2011) WEBRip [H.264] [Open Matte]
    Рейтинг →
     (голосов: 1, оценка 4/5, голосовать можно 1 раз )

    Другие торренты по теме:

  • Живая сталь / Real Steel (2011) BDRip [AVO]
  • Живая сталь / Real Steel (2011) BDRip [720p] [hand made 60fps]
  • Живая сталь / Real Steel (2011) BDRemux [H.264 / 1080p] скачать через торрент бесплатно
  • Живая сталь / Real Steel (2011) Blu-ray [H.264 / 1080p]
  • Живая сталь / Real Steel (2011) BDRip [H.265 / 1080p-LQ]
  • Живая сталь / Real Steel (2011) BDRip [H.265 / 1080p-LQ] [10-bit]


    • Комментарии (0):

      Информация

      Информация

        Посетители, находящиеся в группе Гости, не могут оставлять комментарии в данной новости.

        ↓ Меню




        ↓ Опрос

        Вы добавили сайт в закладки?
        Да
        Нет


        Top 10 за месяц (Фильмы)