.
Авторизация | Регистрация
Хочешь лучшие торренты? Добавь свой email!
Добавить

Торрент скачать бесплатно

  • support: webmaster@btracker.club
» » Видение Бхарата / Bharat Ane Nenu (2018) WEB-DLRip торрент скачать бесплатно


    Видение Бхарата / Bharat Ane Nenu (2018) WEB-DLRip торрент скачать бесплатно

    Опубликовал: fregat | Дата: 30-12-2018, 16:13 | .torrent скачали: 2

    Видение Бхарата / Bharat Ane Nenu (2018) WEB-DLRipПроизводство: Индия
    Жанр: Боевик, Драма
    Режиссер: Кораталла Сива
    Продюсер: Д.В.В. Данайя, Дасари Кальян, Raj Kumar

    Актеры
    Махеш Бабу, Киара Адвани, Пракаш Радж, Саратх Кумар, Деварай, Раджсекхар Анинги, Ситара

    Описание

    Выполняя данное матери обещание, выпускник престижного западного университета Бхарат Рам возвращается на родину в Индию. Там иллюзии Бхарата оказываются развеяны колоссальным взяточничеством. Он решает бросить вызов коррумпированной власти и баллотируется в парламент страны.

    Дата премьеры: 19 апреля 2018
    Релиз от: BWtorrents
    Продолжительность: 02: 48: 45
    Качество видео: WEB-DLRip
    Перевод: Профессиональный (закадровый, многоголосый) т/к Индия ТВ
    Субтитры: Русские, неотключаемые, только на песни (перевод керелис)
    Видео: Xvid, 720x306, ~1600 Kbps
    Аудио: AC3, 2 ch, 192 Kbps

    Общее
    Полное имя : J: Ja.Bharat.2018.WEBDLRip.avi
    Формат : AVI
    Формат/Информация : Audio Video Interleave
    Профиль формата : OpenDML
    Размер файла : 2, 12 Гбайт
    Продолжительность : 2 ч. 48 м.
    Общий поток : 1802 Кбит/сек
    Название фильма : РЇ - Бхарат/Bharat Ane Nenu (2018) BwTorrents
    Программа кодирования : Lavf57.71.100
    Видео
    Идентификатор : 0
    Формат : MPEG-4 Visual
    Профиль формата : Advanced Simple@L5
    Параметр BVOP формата : 1
    Параметр QPel формата : Нет
    Параметр GMC формата : Без точки перехода
    Параметр матрицы формата : Default (H.263)
    Идентификатор кодека : XVID
    Идентификатор кодека/Подсказка : XviD
    Продолжительность : 2 ч. 48 м.
    Битрейт : 1599 Кбит/сек
    Ширина : 720 пикселей
    Высота : 306 пикселей
    Соотношение сторон : 2, 35: 1
    Частота кадров : 24, 000 кадра/сек
    Цветовое пространство : YUV
    Субдискретизация насыщенности : 4: 2: 0
    Битовая глубина : 8 бит
    Тип развёртки : Прогрессивная
    Метод сжатия : С потерями
    Бит/(Пиксели*Кадры) : 0.302
    Размер потока : 1, 88 Гбайт (89%)
    Заголовок : РЇ - Бхарат/Bharat Ane Nenu (2018)
    Библиотека кодирования : XviD 67
    Аудио
    Идентификатор : 1
    Формат : AC-3
    Формат/Информация : Audio Coding 3
    Расширение режима : CM (complete main)
    Параметр Endianness формата : Big
    Идентификатор кодека : 2000
    Продолжительность : 2 ч. 48 м.
    Вид битрейта : Постоянный
    Битрейт : 192 Кбит/сек
    Каналы : 2 канала
    Расположение каналов : Front: L R
    Частота : 48, 0 КГц
    Частота кадров : 31, 250 кадров/сек (1536 spf)
    Битовая глубина : 16 бит
    Метод сжатия : С потерями
    Размер потока : 232 Мбайт (11%)
    Выравнивание : Соединение по промежуткам
    Продолжительность промежутка : 32 мс. (0, 77 видеокадр)
    Заголовок : РЇ - Бхарат/Bharat Ane Nenu (2018)

    Скриншоты для ознакомления



    Все одноименные релизы в Клубе
    Время раздачи: Пн-Пт с 18: 00 до 22: 00, Вс с 09: 00 до 22: 30 (до появления первых 3-5 скачавших)


    Онлайн видео Видение Бхарата



    Видение Бхарата/Bharat Ane Nenu (2018) WEB-DLRip
    Рейтинг →
     (голосов: 1, оценка 5/5, голосовать можно 1 раз )

    Другие торренты по теме:

  • Кен Уилбер | Интегральное видение (2014) [EPUB, PDF]
  • НТВ-видение: Мировая закулиса. Зараза (2016.05.22) SATRip
  • НТВ-видение: Тайны Фаберже (2016.05.29) SATRip
  • НТВ-видение: Турецкая кухня. Часть первая (2016.06.04) SATRip
  • НТВ-видение: Турецкая кухня. Часть вторая (2016.06.05) SATRip
  • НТВ-видение: Кремлевская рулетка (2016.06.12) SATRip
  • НТВ-видение: Признание экономического убийцы. Часть первая (2016.06.18) SATRip
  • НТВ-видение: Признание экономического убийцы. Часть вторая (2016.06.19) SATRip


    • Комментарии (0):

      Информация

      Информация

        Посетители, находящиеся в группе Гости, не могут оставлять комментарии в данной новости.

        ↓ Меню




        ↓ Опрос

        Вы добавили сайт в закладки?
        Да
        Нет


        Top 10 за месяц (Фильмы)