.
Авторизация | Регистрация

Торрент скачать бесплатно

  • support: webmaster@btracker.club
» » Билли Мэдисон / Billy Madison (1995) BDRip [H.265 / 1080p] [10-bit] торрент скачать бесплатно


    Билли Мэдисон / Billy Madison (1995) BDRip [H.265 / 1080p] [10-bit] торрент скачать бесплатно

    Дата: 30-12-2018, 16:13 | .torrent скачали: 0

    Билли Мэдисон / Billy Madison (1995) BDRip [H.265 / 1080p] [10-bit]Производство: США/Robert Simonds Productions, Universal Pictures
    Жанр: Комедия
    Режиссер: Тамра Дэвис
    Продюсер: Роберт Симондз, Фитч Кэди, Джек Джиррапуто

    Актеры
    Адам Сэндлер, Брэдли Уитфорд, Джош Мостел, Бриджит Уилсон, Норм МакДоналд, Марк Белцмэн, Ларри Хэнкин, Тереза Мерритт, Дина Платиас, Даррен МакГэвин, Хрант Альянак, Винсент Марино, Джек Мэтер, Кристофер Келк, Марк Донато

    Описание

    Великовозрастный балбес Билли Мэдисон, наследник невероятно богатого владельца сети отелей, проводит круглые сутки в разглядывании непристойных журнальчиков, поглощая пиво и устраивая идиотские розыгрыши.
    Правда, довольно скоро ему приходится взяться за ум: Мэдисон-старший сообщает Билли, что собирается передать бизнес подхалиму мистеру Гордону, и единственное условие, при котором Билли может стать руководителем компании отца, это заново закончить школу, начиная с первого класса, причем на каждый класс ему отводится всего две недели…

    Возраст: 16+ (зрителям, достигшим 16 лет)
    Рейтинг MPAA: PG-13 (детям до 13 лет просмотр нежелателен)
    Релиз от: Goor80
    Продолжительность: 01: 29: 52
    Качество видео: BDRip
    Перевод: Многоголосый закадровый (Lizard Cinema Trade)
    Субтитры: русские, английские (для слабослышащих)
    Видео: HEVC/H.265, 1920x1040, ~7929 Kbps
    Аудио 1: DTS, 6 ch, 768 Kbps (русский)
    Аудио 2: DTS, 6 ch, 1509 Kbps (английский)

    Общее
    Уникальный идентификатор : 132203556256506192002881554736937188025 (0x63757A90FDB9723AC0C6E3B451FC3AB9)
    Полное имя : J: MoviesФильмыИностранныеБилли Мэдисон (Billy Madison).mkv
    Формат : Matroska
    Версия формата : Version 4/Version 2
    Размер файла : 6, 42 Гбайт
    Продолжительность : 1 ч. 29 м.
    Общий поток : 10, 2 Мбит/сек
    Название фильма : Билли Мэдисон/Billy Madison
    Кодирование произвёл : Goor80
    Дата выпуска : 1995
    Дата кодирования : UTC 2018-12-05 16: 21: 27
    Программа кодирования : mkvmerge v28.2.0 (\'The Awakening\') 64-bit
    Библиотека кодирования : libebml v1.3.6 + libmatroska v1.4.9/NVEncC (x64) 4.26 (r968) by rigaya, Nov 24 2018 07: 37: 02 (VC 1900/Win/avx2)
    ENCODER_SETTINGS : --avhw cuda --cqp 18: 20: 22 --codec h265 --preset quality --profile main10 --tier high --output-depth 10 --weightp --bframes 8 --ref 5 --lookahead 32 --aq --aq-temporal --transfer auto --aud --mv-precision q-pel --crop 0, 16, 0, 24
    Released by : Buba5473 for NNM-Club
    Видео
    Идентификатор : 1
    Формат : HEVC
    Формат/Информация : High Efficiency Video Coding
    Профиль формата : Main 10@L4@Main
    Идентификатор кодека : V_MPEGH/ISO/HEVC
    Продолжительность : 1 ч. 29 м.
    Битрейт : 7929 Кбит/сек
    Ширина : 1920 пикселей
    Высота : 1040 пикселей
    Соотношение сторон : 1, 85: 1
    Режим частоты кадров : Постоянный
    Частота кадров : 23, 976 (24000/1001) кадра/сек
    Цветовое пространство : YUV
    Субдискретизация насыщенности : 4: 2: 0
    Битовая глубина : 10 бит
    Бит/(Пиксели*Кадры) : 0.166
    Размер потока : 4, 98 Гбайт (78%)
    Default : Да
    Forced : Нет
    Цветовой диапазон : Limited
    Характеристики трансфера : BT.709
    Аудио #1
    Идентификатор : 2
    Формат : DTS
    Формат/Информация : Digital Theater Systems
    Идентификатор кодека : A_DTS
    Продолжительность : 1 ч. 29 м.
    Вид битрейта : Постоянный
    Битрейт : 768 Кбит/сек
    Каналы : 6 каналов
    Расположение каналов : Front: L C R, Side: L R, LFE
    Частота : 48, 0 КГц
    Частота кадров : 93, 750 кадра/сек (512 SPF)
    Битовая глубина : 24 бит
    Метод сжатия : С потерями
    Размер потока : 493 Мбайт (7%)
    Заголовок : Перевод: Профессиональный (многоголосый закадровый) Lizard Cinema Trade
    Язык : Russian
    Default : Да
    Forced : Нет
    Аудио #2
    Идентификатор : 3
    Формат : DTS
    Формат/Информация : Digital Theater Systems
    Идентификатор кодека : A_DTS
    Продолжительность : 1 ч. 29 м.
    Вид битрейта : Постоянный
    Битрейт : 1509 Кбит/сек
    Каналы : 6 каналов
    Расположение каналов : Front: L C R, Side: L R, LFE
    Частота : 48, 0 КГц
    Частота кадров : 93, 750 кадра/сек (512 SPF)
    Битовая глубина : 24 бит
    Метод сжатия : С потерями
    Размер потока : 970 Мбайт (15%)
    Язык : English
    Default : Нет
    Forced : Нет
    Текст #1
    Идентификатор : 4
    Формат : PGS
    Режим смешивания : zlib
    Идентификатор кодека : S_HDMV/PGS
    Идентификатор кодека/Информация : Picture based subtitle format used on BDs/HD-DVDs
    Продолжительность : 1 ч. 24 м.
    Битрейт : 28, 0 Кбит/сек
    ElementCount : 1958
    Размер потока : 16, 9 Мбайт (0%)
    Язык : Russian
    Default : Да
    Forced : Нет
    Текст #2
    Идентификатор : 5
    Формат : PGS
    Режим смешивания : zlib
    Идентификатор кодека : S_HDMV/PGS
    Идентификатор кодека/Информация : Picture based subtitle format used on BDs/HD-DVDs
    Продолжительность : 1 ч. 25 м.
    Битрейт : 43, 1 Кбит/сек
    ElementCount : 2592
    Размер потока : 26, 2 Мбайт (0%)
    Заголовок : SDH
    Язык : English
    Default : Нет
    Forced : Нет
    Меню
    00: 00: 00.000 : en: 00: 00: 00.000
    00: 05: 40.131 : en: 00: 05: 40.131
    00: 13: 47.952 : en: 00: 13: 47.952
    00: 18: 21.600 : en: 00: 18: 21.600
    00: 21: 05.472 : en: 00: 21: 05.472
    00: 29: 15.211 : en: 00: 29: 15.211
    00: 36: 11.752 : en: 00: 36: 11.752
    00: 40: 28.843 : en: 00: 40: 28.843
    00: 50: 39.661 : en: 00: 50: 39.661
    01: 01: 12.335 : en: 01: 01: 12.335
    01: 05: 05.484 : en: 01: 05: 05.484
    01: 07: 06.689 : en: 01: 07: 06.689
    01: 14: 13.323 : en: 01: 14: 13.323
    01: 17: 32.105 : en: 01: 17: 32.105
    01: 22: 07.631 : en: 01: 22: 07.631
    01: 22: 56.346 : en: 01: 22: 56.346
    XMP
    Xmp.video.FileName : J: MoviesФильмыИностранныеБилли Мэдисон (Billy Madison).mkv
    Xmp.video.FileSize : -9.53674e-007
    Xmp.video.MimeType : video/matroska
    Xmp.video.EBMLVersion : 1
    Xmp.video.EBMLReadVersion : 1
    Xmp.video.DocType : matroska
    Xmp.video.DocTypeVersion : 4
    Xmp.video.DocTypeReadVersion : 2
    Xmp.video.TimecodeScale : 0.001
    Xmp.video.MuxingApp : libebml v1.3.6 + libmatroska v1.4.9
    Xmp.video.WritingApp : mkvmerge v28.2.0 (\'The Awakening\') 64-bit
    Xmp.video.Duration : 5392022
    Xmp.video.DateUTC : 565719687
    Xmp.video.Title : БиРРРё РњСЌРґРёСЃРѕРЅ/Billy Madison
    Xmp.video.TotalStream : 15
    Xmp.video.TrackLacing : No
    Xmp.video.Codec : V_MPEGH/ISO/HEVC
    Xmp.video.TrackLang : und
    Xmp.video.Width : 1920
    Xmp.video.Height : 1040
    Xmp.video.FrameRate : 23.976
    Xmp.audio.Compressor : A_DTS
    Xmp.audio.DefaultDuration : 10666
    Xmp.audio.TrackLang : rus
    Xmp.video.TrackName : SDH
    Xmp.audio.SampleRate : 48000
    Xmp.audio.BitsPerSample : 24
    Xmp.audio.DefaultOn : No
    Xmp.video.SubTTrackLacing : No
    Xmp.video.SubTCodec : S_HDMV/PGS
    Xmp.video.SubTLang : rus
    Xmp.video.SubTDefaultOn : No
    Xmp.video.AspectRatio : 1.8
    H.265/HEVC (High Efficiency Video Coding) - это новый стандарт кодирования видео.
    *Рипы в фомате HEVC, в настоящее время поддерживается не всеми аппаратными проигрывателями.
    *Для корректного воспроизведения может потребоваться обновление ПО.
    *Стандарт H.265/HEVC является логическим продолжением стандарта H.264/AVC (Advanced Video Coding), и характеризуется более эффективными алгоритмами сжатия, а также поддержкой высокого разрешения вплоть до 8K UHD (8192x4320). Первая версия стандарта H.265 была опубликована в начале 2013 года.
    Любителям решения из коробки - установить последнюю версию на выбор:
    Media Player Classic - Black Edition (MPC-BE)
    VLC media player
    Daum Pot Player
    GOM Media Player
    Любителям WMP и других плееров, использующих по умолчанию для воспроизведения системные кодеки+сплитеры - установить K-Lite Codec Pack версии 10.1.0 и выше.
    Любимые плееры, не использующии по умолчанию для воспроизведения системные кодеки+сплитеры, нужно перенастроить на использование оных.

    Скриншоты для ознакомления



    Все одноименные релизы в Клубе
    Время раздачи: с 11: 00 до 21: 00 по Новосибирску (UTC +7) (до появления первых 3-5 скачавших)


    Онлайн видео Билли Мэдисон



    Билли Мэдисон/Billy Madison (1995) BDRip [H.265/1080p] [10-bit]
    Рейтинг →
     (голосов: 1, оценка 5/5, голосовать можно 1 раз )

    Другие торренты по теме:

  • Билли Мэдисон / Billy Madison (1995) HDRip скачать через торрент бесплатно
  • Билли Мэдисон / Billy Madison (1995) BDRemux [VC-1 / 1080p]


    • Комментарии (0):

      Информация

      Информация

        Посетители, находящиеся в группе Гости, не могут оставлять комментарии в данной новости.

        ↓ Меню




        ↓ Опрос

        Вы добавили сайт в закладки?
        Да
        Нет


        Top 10 за месяц (Фильмы)