.
Авторизация | Регистрация
Хочешь лучшие торренты? Добавь свой email!
Добавить

Торрент скачать бесплатно

  • support: webmaster@btracker.club
» » Невеста (2006) DVDRip [H.264] торрент скачать бесплатно


    Невеста (2006) DVDRip [H.264] торрент скачать бесплатно

    Опубликовал: fregat | Дата: 30-12-2018, 16:13 | .torrent скачали: 0

    Невеста (2006) DVDRip [H.264]Жанр: Драма, Мелодрама
    Режиссер: Эльёр Ишмухамедов

    Актеры
    Юлия Пересильд, Шамиль Хаматов, Анна Шерлинг, Александр Головин, Тамара Акулова, Жан Даниэль

    Описание

    Как-то на Святки романтичная провинциальная студентка Оля решила погадать. Зажгла свечу перед зеркалом и увидела в нем суженого-ряженого – реального молодого человека по имени Саша, в которого, еще будучи школьницей, влюбилась прямо на улице с первого взгляда.
    Девушка не стала игнорировать знаки судьбы и отправилась искать нареченного, нашла его дом, позвонила в дверь и... попала на похороны Саши. Оказывается, его убили в Чечне. Отчаянный юноша сам попросил, чтобы его отправили в горячую точку - хотел отомстить за убитого друга. Но в итоге погиб сам...
    Прошло семь лет. Оля собирается выйти замуж за прыткого молодого человека по имени Сергей. Она не любит его, но жизнь берет свое – надо как-то устраивать судьбу. Однако перед самой свадьбой невеста с острым приступом аппендицита попадает в больницу. Она еще не знает, что в неприветливых стенах госпиталя ее ждет настоящее счастье, ради достижения которого, конечно, придется совершить невозможное...

    Релиз от: almikl
    Продолжительность: 01: 25: 56
    Качество видео: DVDRip
    Видео: AVC/H.264, ~2262 Kbps, 720х416
    Аудио: AC3 5.1, 384 Kbps

    Скриншоты для ознакомления


    Nevesta.2006.DVDRip-AVC.h264.almikl.mkv
    General
    Complete name : Nevesta.2006.DVDRip-AVC.h264.almikl.mkv
    Format : Matroska
    File size : 1.62 GiB
    Duration : 1h 25mn
    Overall bit rate : 2 700 Kbps
    Encoded date : UTC 2012-12-05 14: 00: 50
    Writing application : mkvmerge v5.6.0 (\'Kenya Kane\') built on May 27 2012 16: 44: 04
    Writing library : libebml v1.2.3 + libmatroska v1.3.0
    Video #1
    ID : 1
    Format : AVC
    Format/Info : Advanced Video Codec
    Format profile : High@L4.1
    Format settings, CABAC : Yes
    Format settings, ReFrames : 6 frames
    Muxing mode : Container profile=Unknown@4.1
    Codec ID : V_MPEG4/ISO/AVC
    Duration : 1h 25mn
    Bit rate : 2 262 Kbps
    Nominal bit rate : 2 315 Kbps
    Width : 720 pixels
    Height : 416 pixels
    Display aspect ratio : 16: 9
    Frame rate : 25.000 fps
    Resolution : 8 bits
    Colorimetry : 4: 2: 0
    Scan type : Progressive
    Bits/(Pixel*Frame) : 0.302
    Stream size : 1.36 GiB (84%)
    Writing library : x264 core 125 r2200 999b753
    Encoding settings : cabac=1/ref=6/deblock=1: -1: -1/analyse=0x3: 0x113/me=umh/subme=10/psy=1/psy_rd=1.00: 0.15/mixed_ref=1/me_range=16/chroma_me=1/trellis=2/8x8dct=1/cqm=0/deadzone=21, 11/fast_pskip=1/chroma_qp_offset=-3/threads=12/lookahead_threads=2/sliced_threads=0/nr=0/decimate=1/interlaced=0/bluray_compat=0/constrained_intra=0/bframes=10/b_pyramid=2/b_adapt=2/b_bias=0/direct=1/weightb=1/open_gop=0/weightp=2/keyint=250/keyint_min=25/scenecut=40/intra_refresh=0/rc_lookahead=40/rc=2pass/mbtree=1/bitrate=2315/ratetol=1.0/qcomp=0.60/qpmin=0/qpmax=69/qpstep=4/cplxblur=20.0/qblur=0.5/ip_ratio=1.40/aq=1: 1.00
    Audio #2
    ID : 2
    Format : AC-3
    Format/Info : Audio Coding 3
    Codec ID : A_AC3
    Duration : 1h 25mn
    Bit rate mode : Constant
    Bit rate : 384 Kbps
    Channel(s) : 6 channels
    Channel positions : Front: L C R, Surround: L R, LFE
    Sampling rate : 48.0 KHz
    Stream size : 236 MiB (14%)
    Все релизыНевестана NNM-CLUB

    Время раздачи: 24/7, до 10 скачавших


    Онлайн видео Представь, что ты машинист (2017) WEBRip [H.264



    Невеста (2006) DVDRip [H.264]
    Рейтинг →
     (голосов: 1, оценка 3/5, голосовать можно 1 раз )

    Другие торренты по теме:

  • Невеста / The Bride (2014) DVDRip
  • Невеста пирата / La fiancee du pirate (1969) DVDRip [H.264]
  • Сбежавшая Невеста / Runaway Bride (1999) DVDRip


    • Комментарии (0):

      Информация

      Информация

        Посетители, находящиеся в группе Гости, не могут оставлять комментарии в данной новости.

        ↓ Меню




        ↓ Опрос

        Вы добавили сайт в закладки?
        Да
        Нет


        Top 10 за месяц (Фильмы)