.
Авторизация | Регистрация
Хочешь лучшие торренты? Добавь свой email!
Добавить

Торрент скачать бесплатно

  • support: webmaster@btracker.club
» » Магия превыше всего (2018) WEBRip торрент скачать бесплатно


    Магия превыше всего (2018) WEBRip торрент скачать бесплатно

    Опубликовал: fregat | Дата: 30-12-2018, 16:13 | .torrent скачали: 0

    Магия превыше всего (2018) WEBRipПроизводство: Россия
    Жанр: Короткометражный, драма, фэнтези
    Режиссер: Екатерина Краснер

    Актеры
    Василий Зотов, Елизавета Рыжих, Михаил Кремер, Иван Забелин, Кирилл Ковбас, Михаил Горевой, Семён Шомин, Антон Шурцов, Вероника Тимофеева, Григорий Перель

    Описание

    В современной России существует иной мир — мир магии и чародейства. Волшебники вынуждены скрываться от окружающего их немагического сообщества, к которому они относятся пренебрежительно, а некоторые — и вовсе враждебно. Начальник Стражей Верховного Ведомства Магии и Чародейства Бахрушин, потерявший способность к магии, должен не только не раскрыться, но и предотвратить надвигающуюся войну волшебников и немагов.

    Возраст: 12+ (зрителям, достигшим 12 лет)
    Продолжительность: 00: 34: 03
    Качество видео: WEBRip
    Субтитры: Отсутствуют
    Видео: Xvid, 720x304, ~1095 Kbps
    Аудио: AC3, 2 ch, 192 Kbps

    Общее
    Полное имя : D: Магия превыше всего (2018).avi
    Формат : AVI
    Формат/Информация : Audio Video Interleave
    Размер файла : 317 Мбайт
    Продолжительность : 34 м. 3 с.
    Общий поток : 1300 Кбит/сек
    Программа кодирования : Lavf58.12.100
    Видео
    Идентификатор : 0
    Формат : xvid
    Идентификатор кодека : xvid
    Продолжительность : 34 м. 3 с.
    Битрейт : 1097 Кбит/сек
    Ширина : 720 пикселей
    Высота : 304 пикселя
    Соотношение сторон : 2, 40: 1
    Частота кадров : 25, 000 кадров/сек
    Тип развёртки : Прогрессивная
    Бит/(Пиксели*Кадры) : 0.200
    Размер потока : 267 Мбайт (84%)
    Аудио
    Идентификатор : 1
    Формат : AC-3
    Формат/Информация : Audio Coding 3
    Коммерческое название : Dolby Digital
    Идентификатор кодека : 2000
    Продолжительность : 34 м. 3 с.
    Вид битрейта : Постоянный
    Битрейт : 192 Кбит/сек
    Каналы : 2 канала
    Channel layout : L R
    Частота : 48, 0 КГц
    Частота кадров : 31, 250 кадров/сек (1536 SPF)
    Битовая глубина : 16 бит
    Метод сжатия : С потерями
    Размер потока : 46, 8 Мбайт (15%)
    Выравнивание : Соединение по промежуткам
    Продолжительность промежутка : 32 мс. (0, 80 видеокадр)
    ServiceKind/String : Complete Main

    Скриншоты для ознакомления



    Все одноименные релизы в Клубе
    Время раздачи: 24/7 (круглосуточно) (до появления первых 3-5 скачавших)


    Магия превыше всего (2018) WEBRip
    Рейтинг →
     (голосов: 1, оценка 3/5, голосовать можно 1 раз )

    Другие торренты по теме:

  • Кармен Веделанд и др. | Шитье и вязание ХЮГГЕ. Магия рукоделия для дома, где живет счастье (2018) [PDF]
  • Ольга Романовская | Ледяная магия (2019) [MP3]
  • Книжная серия | Магия фэнтези [550 книг] (2004-2014) [FB2] скачать через торрент бесплатно
  • Магия лунного света / Magic in the Moonlight (2014) HDRip [Line] скачать через торрент бесплатно
  • Магия слов: История Дж.К. Роулинг / Magic Beyond Words: The JK Rowling Story (2011) [1080i] скачать через торрент бесплатно
  • Магия лунного света / Magic in the Moonlight (2014) BDRip [720p] [EN] скачать через торрент бесплатно
  • Магия лунного света / Magic in the Moonlight (2014) BDRip [1080p] [EN]
  • Магия лунного света / Magic in the Moonlight (2014) BDRip [720p] [Line]


    • Комментарии (0):

      Информация

      Информация

        Посетители, находящиеся в группе Гости, не могут оставлять комментарии в данной новости.

        ↓ Меню




        ↓ Опрос

        Вы добавили сайт в закладки?
        Да
        Нет


        Top 10 за месяц (Фильмы)