.
Авторизация | Регистрация
Хочешь лучшие торренты? Добавь свой email!
Добавить

Торрент скачать бесплатно

  • support: webmaster@btracker.club
» » Гонки по вертикали (1982) DVDRip [H.264] (3 серии) торрент скачать бесплатно


    Гонки по вертикали (1982) DVDRip [H.264] (3 серии) торрент скачать бесплатно

    Опубликовал: fregat | Дата: 30-12-2018, 16:13 | .torrent скачали: 0

    Гонки по вертикали (1982) DVDRip [H.264] (3 серии)Производство : СССР, Киностудия им.Довженко
    Жанр: криминал, детектив, приключения
    Режиссер: Александр Муратов
    Сценарий: Аркадий Вайнер, Георгий Вайнер

    Актеры
    Андрей Мягков, Валентин Гафт, Владимир Сальников (II), Николай Засухин, Галина Польских, Ирина Бразговка, Елена Капица, Станислав Чекан, Вячеслав Жолобов, Валерий Дуров и др.

    Описание

    Психологическая дуэль следователя и обаятельного вора-рецидивиста по кличке Батон, который в итоге получает по заслугам. Однако следователя это не утешит: по ходу дела герой найдет и потеряет любимую...

    Продолжительность: 03: 17: 29
    Качество видео: DVDRip-AVC
    Субтитры : отсутствуют
    Видео: AVC, ~976 kbps, 720x576@768x576
    Аудио: AC3, 6 ch ~384 Kbps

    Format : Matroska
    File size : 1.91 GiB
    Duration : 3h 17mn
    Overall bit rate : 1 387 Kbps
    Encoded date : UTC 2010-08-25 22: 13: 18
    Writing application : mkvmerge v4.0.0 (\'The Stars were mine\') сборка от Jun 6 2010 16: 18: 42
    Writing library : libebml v1.0.0 + libmatroska v1.0.0
    Video
    ID : 1
    Format : AVC
    Format/Info : Advanced Video Codec
    Format profile : High@L4.1
    Format settings, CABAC : Yes
    Format settings, ReFrames : 4 frames
    Muxing mode : Container profile=Unknown@4.1
    Codec ID : V_MPEG4/ISO/AVC
    Duration : 3h 17mn
    Bit rate : 976 Kbps
    Width : 720 pixels
    Height : 576 pixels
    Display aspect ratio : 4: 3
    Original display aspect ratio : 5: 4
    Frame rate : 25.000 fps
    Standard : PAL
    Color space : YUV
    Chroma subsampling : 4: 2: 0
    Bit depth : 8 bits
    Scan type : Progressive
    Bits/(Pixel*Frame) : 0.094
    Stream size : 1.35 GiB (70%)
    Audio
    ID : 2
    Format : AC-3
    Format/Info : Audio Coding 3
    Mode extension : CM (complete main)
    Codec ID : A_AC3
    Duration : 3h 17mn
    Bit rate mode : Constant
    Bit rate : 384 Kbps
    Channel(s) : 6 channels
    Channel positions : Front: L C R, Side: L R, LFE
    Sampling rate : 48.0 KHz
    Bit depth : 16 bits
    Video delay : 8ms
    Stream size : 542 MiB (28%)

    Скриншоты для ознакомления



    Все одноименные релизы в Клубе


    Гонки по вертикали (1982) DVDRip [H.264] (3 серии)
    Рейтинг →
     (голосов: 1, оценка 5/5, голосовать можно 1 раз )

    Другие торренты по теме:

  • Гонки по вертикали (1982) WEB-DLRip [H.264 / 720p] (3 серии)


    • Комментарии (0):

      Информация

      Информация

        Посетители, находящиеся в группе Гости, не могут оставлять комментарии в данной новости.

        ↓ Меню




        ↓ Опрос

        Вы добавили сайт в закладки?
        Да
        Нет


        Top 10 за месяц (Фильмы)