.
Авторизация | Регистрация

Торрент скачать бесплатно

  • support: webmaster@btracker.club
» » Некоторые девчонки / Some Girls (1988) WEB-DL [H.264 / 1080p] [Open Matte] торрент скачать бесплатно


    Некоторые девчонки / Some Girls (1988) WEB-DL [H.264 / 1080p] [Open Matte] торрент скачать бесплатно

    Дата: 30-12-2018, 16:13 | .torrent скачали: 0

    Некоторые девчонки / Some Girls (1988) WEB-DL [H.264 / 1080p] [Open Matte]Производство: США/Metro-Goldwyn-Mayer (MGM), The Oxford Film Company, Wildwood Enterprises
    Жанр: Фэнтези, драма, мелодрама, комедия
    Режиссер: Майкл Хоффман

    Актеры
    Патрик Демпси, Дженнифер Коннелли, Шила Келли, Лэнс Эдвардс, Лиля Кедрова, Флоринда Болкан, Андре Грегори, Эшли Гринфилд, Жан-Луис Миллет, Сэнна Враа

    Описание

    Студент колледжа Майкл приезжает на Рождество в Канаду, чтобы провести его с семьей своей подружки Габриэллы. Однако та сразу заявляет, что больше его не любит. Вынужденный остаться на праздники в доме Габриэллы, Майкл обнаруживает, что ее семья очень странная. Отец, писатель, постоянно ходит по дому обнаженным. Бабушка принимает Майкла за своего покойного мужа, а сестры Габриэллы проявляют к нему явный интерес…

    Возраст: 16+ (зрителям, достигшим 16 лет)
    Рейтинг MPAA: R (лицам до 17 лет обязательно присутствие взрослого)
    Продолжительность: 01: 33: 32
    Качество видео: WEB-DL 1080p (AMAZON)
    Перевод: Двухголосый закадровый, профессиональный
    Субтитры: Английские (Full, SDH)
    Видео: AVC/H.264, 1920x1040, ~13, 7 Mbps
    Аудио #1: AC3, 2 ch, 192 Kbps - Русский
    Аудио #2: AC3, 2 ch, 192 Kbps - Английский

    Общее
    Уникальный идентификатор : 251429459542638591784794040699970158568 (0xBD278D70DD547AD79B70026A068C7FE8)
    Полное имя : E: NNMНекоторые девчонкиSome Girls 1988 WEB-DL 1080p.mkv
    Формат : Matroska
    Версия формата : Version 4/Version 2
    Размер файла : 9, 37 Гбайт
    Продолжительность : 1 ч. 33 м.
    Общий поток : 14, 3 Мбит/сек
    Название фильма : For NNMClub
    Дата кодирования : UTC 2018-12-29 08: 08: 37
    Программа кодирования : mkvmerge v6.9.1 (\'Blue Panther\') 32bit built on Apr 18 2014 18: 15: 44
    Библиотека кодирования : libebml v1.3.0 + libmatroska v1.4.1
    Видео
    Идентификатор : 1
    Формат : AVC
    Формат/Информация : Advanced Video Codec
    Профиль формата : High@L4
    Настройки формата : CABAC/4 Ref Frames
    Параметр CABAC формата : Да
    Параметр RefFrames формата : 4 кадра
    Идентификатор кодека : V_MPEG4/ISO/AVC
    Продолжительность : 1 ч. 33 м.
    Битрейт : 13, 7 Мбит/сек
    Ширина : 1920 пикселей
    Высота : 1040 пикселей
    Соотношение сторон : 1, 85: 1
    Соотношение сторон в оригинале : 1, 85: 1
    Режим частоты кадров : Постоянный
    Частота кадров : 23, 976 (24000/1001) кадра/сек
    Цветовое пространство : YUV
    Субдискретизация насыщенности : 4: 2: 0
    Битовая глубина : 8 бит
    Тип развёртки : Прогрессивная
    Бит/(Пиксели*Кадры) : 0.286
    Размер потока : 8, 93 Гбайт (95%)
    Язык : English
    Default : Да
    Forced : Нет
    Цветовой диапазон : Limited
    Основные цвета : BT.709
    Характеристики трансфера : BT.709
    Коэффициенты матрицы : BT.709
    Аудио #1
    Идентификатор : 2
    Формат : AC-3
    Формат/Информация : Audio Coding 3
    Идентификатор кодека : A_AC3
    Продолжительность : 1 ч. 33 м.
    Вид битрейта : Постоянный
    Битрейт : 192 Кбит/сек
    Каналы : 2 канала
    Расположение каналов : Front: L R
    Частота : 48, 0 КГц
    Частота кадров : 31, 250 кадров/сек (1536 SPF)
    Битовая глубина : 16 бит
    Метод сжатия : С потерями
    Размер потока : 128 Мбайт (1%)
    Заголовок : DVO
    Язык : Russian
    ServiceKind/String : Complete Main
    Default : Да
    Forced : Нет
    Аудио #2
    Идентификатор : 3
    Формат : AC-3
    Формат/Информация : Audio Coding 3
    Идентификатор кодека : A_AC3
    Продолжительность : 1 ч. 33 м.
    Вид битрейта : Постоянный
    Битрейт : 192 Кбит/сек
    Каналы : 2 канала
    Расположение каналов : Front: L R
    Частота : 48, 0 КГц
    Частота кадров : 31, 250 кадров/сек (1536 SPF)
    Битовая глубина : 16 бит
    Метод сжатия : С потерями
    Размер потока : 128 Мбайт (1%)
    Заголовок : Original
    Язык : English
    ServiceKind/String : Complete Main
    Default : Нет
    Forced : Нет
    Текст #1
    Идентификатор : 4
    Формат : UTF-8
    Идентификатор кодека : S_TEXT/UTF8
    Идентификатор кодека/Информация : UTF-8 Plain Text
    Заголовок : Full
    Язык : English
    Default : Нет
    Forced : Нет
    Текст #2
    Идентификатор : 5
    Формат : UTF-8
    Идентификатор кодека : S_TEXT/UTF8
    Идентификатор кодека/Информация : UTF-8 Plain Text
    Заголовок : SDH
    Язык : English
    Default : Нет
    Forced : Нет
    Меню
    00: 00: 00.000 : en: 01. Main Titles/Wanting Her
    00: 03: 33.536 : en: 02. Meet The Family
    00: 10: 35.624 : en: 03. Bombshell
    00: 16: 46.194 : en: 04. Michael\'s Theory
    00: 22: 27.335 : en: 05. Ups And Downs
    00: 26: 27.909 : en: 06. Birthday Morning
    00: 31: 29.043 : en: 07. Surprise!
    00: 35: 36.957 : en: 08. Gaby\'s Sisters
    00: 41: 47.327 : en: 09. The Runaway
    00: 48: 50.583 : en: 10. Warmth
    00: 53: 36.202 : en: 11. Memories
    00: 59: 02.762 : en: 12. Fireside Chat
    01: 02: 32.972 : en: 13. Longing
    01: 07: 12.384 : en: 14. Summer Shoes
    01: 10: 19.771 : en: 15. Slipping Away
    01: 16: 48.627 : en: 16. Irenka\'s Gift
    01: 20: 24.509 : en: 17. Christmas Morning
    01: 24: 11.569 : en: 18. Man To Man
    01: 28: 21.819 : en: 19. Going Home
    01: 30: 48.299 : en: 20. End Titles

    Скриншоты для ознакомления



    Все одноименные релизы в Клубе Время раздачи: 24/7 (до появления первых 3-5 скачавших)


    Онлайн видео Некоторые девчонки



    Некоторые девчонки/Some Girls (1988) WEB-DL [H.264/1080p] [Open Matte]
    Рейтинг →
     (голосов: 1, оценка 3/5, голосовать можно 1 раз )

    Другие торренты по теме:

  • А. И. Левковский | Некоторые особенности развития капитализма в Индии до 1947 г. (1956) [DJVU] скачать через торрент бесплатно
  • Некоторые девушки / Some Girl (s) (2013) WEB-DLRip скачать через торрент бесплатно
  • Запечатленное время. Некоторые подробности Большой истории (2014) SATRip [H.264] (серии 1-7) скачать через торрент бесплатно
  • А. Я. Сыркин | Некоторые проблемы изучения упанишад (1971) [DJVU, PDF] скачать через торрент бесплатно
  • Э. Р. Доддс | Язычник и христианин в смутное время: Некоторые аспекты религиозных практик в период от Марка Аврелия до Константина (2003) [DJVU] скачать через торрент бесплатно
  • А. Шафф | Объективный характер законов истории. Некоторые проблемы марксистской методологии историографии (1959) [DJVU]
  • А. Шафф | Некоторые проблемы марксистско-ленинской теории истины (1953) [DJVU]
  • З. А. Мукашев | Почему некоторые ученые верят в бога (1967) [DJVU]


    • Комментарии (0):

      Информация

      Информация

        Посетители, находящиеся в группе Гости, не могут оставлять комментарии в данной новости.

        ↓ Меню




        ↓ Опрос

        Вы добавили сайт в закладки?
        Да
        Нет


        Top 10 за месяц (Фильмы)