.
Авторизация | Регистрация
Хочешь лучшие торренты? Добавь свой email!
Добавить

Торрент скачать бесплатно

  • support: webmaster@btracker.club
» » Подарок на Рождество 2 / Jingle All the Way 2 (2014) BDRip [H.264 / 1080p] торрент скачать бесплатно


    Подарок на Рождество 2 / Jingle All the Way 2 (2014) BDRip [H.264 / 1080p] торрент скачать бесплатно

    Опубликовал: fregat | Дата: 30-12-2018, 16:13 | .torrent скачали: 0

    Подарок на Рождество 2 / Jingle All the Way 2 (2014) BDRip [H.264 / 1080p]Производство: США/Twentieth Century Fox Film Corporation, WWE Studios
    Жанр: Комедия, семейный
    Режиссер: Алекс Замм

    Актеры
    Ларри-кабельщик, Брайан Степанек, Сантино Марелла, Кеннеди Клементс, Кирстен Робек, Рэйчел Хейуорд, Мэтти Финочио, Эрик Брекер, Бренда Кричлоу, Рено Колье

    Описание

    Ларри, родной отец восьмилетней Ноэль, и ее новый отчим соревнуются за звание лучшего отца и пытаются сделать грядущее Рождество незабываемым для девочки.

    Возраст: 12+ (зрителям, достигшим 12 лет)
    Рейтинг MPAA: PG (рекомендуется присутствие родителей)
    Продолжительность: 01: 33: 30
    Качество видео: BDRip (1080p)
    Перевод: Профессиональный (многоголосый, закадровый)
    Субтитры: Английские
    Видео: AVC/H.264, 1920x1080, ~10, 9 Mbps
    Аудио #1: AC3, 2 ch, 192 Kbps - Русский
    Аудио #2: DTS, 6 ch, 1510 Kbps - Английский

    Общее
    Уникальный идентификатор : 183512373131778492527113259624328319744 (0x8A0F328C9B9C4FA593144D39EFD7D300)
    Полное имя : E: NNMПодарок на Рождество 2Podarok na Rozhdestvo 2 2014 BDRip 1080p.mkv
    Формат : Matroska
    Версия формата : Version 4/Version 2
    Размер файла : 8, 26 Гбайт
    Продолжительность : 1 ч. 33 м.
    Общий поток : 12, 6 Мбит/сек
    Дата кодирования : UTC 2014-12-28 09: 17: 56
    Программа кодирования : mkvmerge v7.3.0 (\'Nouages\') 32bit built on Oct 22 2014 18: 44: 01
    Библиотека кодирования : libebml v1.3.0 + libmatroska v1.4.1
    Видео
    Идентификатор : 1
    Формат : AVC
    Формат/Информация : Advanced Video Codec
    Профиль формата : High@L4.1
    Настройки формата : CABAC/4 Ref Frames
    Параметр CABAC формата : Да
    Параметр RefFrames формата : 4 кадра
    Идентификатор кодека : V_MPEG4/ISO/AVC
    Продолжительность : 1 ч. 33 м.
    Битрейт : 10, 9 Мбит/сек
    Ширина : 1920 пикселей
    Высота : 1080 пикселей
    Соотношение сторон : 16: 9
    Режим частоты кадров : Постоянный
    Частота кадров : 23, 976 (24000/1001) кадра/сек
    Цветовое пространство : YUV
    Субдискретизация насыщенности : 4: 2: 0
    Битовая глубина : 8 бит
    Тип развёртки : Прогрессивная
    Бит/(Пиксели*Кадры) : 0.220
    Размер потока : 7, 13 Гбайт (86%)
    Библиотека кодирования : x264 core 142 r2479 dd79a61
    Настройки программы : cabac=1/ref=4/deblock=1: -3: -3/analyse=0x3: 0x113/me=umh/subme=11/psy=1/psy_rd=0.98: 0.10/mixed_ref=1/me_range=64/chroma_me=1/trellis=2/8x8dct=1/cqm=0/deadzone=6, 6/fast_pskip=0/chroma_qp_offset=-3/threads=16/lookahead_threads=1/sliced_threads=0/nr=0/decimate=0/interlaced=0/bluray_compat=0/constrained_intra=0/bframes=8/b_pyramid=2/b_adapt=2/b_bias=0/direct=3/weightb=1/open_gop=1/weightp=2/keyint=250/keyint_min=23/scenecut=40/intra_refresh=0/rc_lookahead=250/rc=2pass/mbtree=1/bitrate=10925/ratetol=1.0/qcomp=0.60/qpmin=0/qpmax=69/qpstep=4/cplxblur=20.0/qblur=0.5/vbv_maxrate=62500/vbv_bufsize=62500/nal_hrd=none/filler=0/ip_ratio=1.40/aq=2: 1.00
    Язык : English
    Default : Да
    Forced : Нет
    Аудио #1
    Идентификатор : 2
    Формат : AC-3
    Формат/Информация : Audio Coding 3
    Идентификатор кодека : A_AC3
    Продолжительность : 1 ч. 33 м.
    Вид битрейта : Постоянный
    Битрейт : 192 Кбит/сек
    Каналы : 2 канала
    Расположение каналов : Front: L R
    Частота : 48, 0 КГц
    Частота кадров : 31, 250 кадров/сек (1536 SPF)
    Битовая глубина : 16 бит
    Метод сжатия : С потерями
    Задержка видео : 1 с. 950 мс.
    Размер потока : 128 Мбайт (2%)
    Язык : Russian
    ServiceKind/String : Complete Main
    Default : Да
    Forced : Нет
    Аудио #2
    Идентификатор : 3
    Формат : DTS
    Формат/Информация : Digital Theater Systems
    Идентификатор кодека : A_DTS
    Продолжительность : 1 ч. 33 м.
    Вид битрейта : Постоянный
    Битрейт : 1509 Кбит/сек
    Каналы : 6 каналов
    Расположение каналов : Front: L C R, Side: L R, LFE
    Частота : 48, 0 КГц
    Частота кадров : 93, 750 кадра/сек (512 SPF)
    Битовая глубина : 24 бит
    Метод сжатия : С потерями
    Размер потока : 1009 Мбайт (12%)
    Язык : English
    Default : Нет
    Forced : Нет
    Текст
    Идентификатор : 4
    Формат : PGS
    Режим смешивания : zlib
    Идентификатор кодека : S_HDMV/PGS
    Идентификатор кодека/Информация : Picture based subtitle format used on BDs/HD-DVDs
    Продолжительность : 1 ч. 29 м.
    Битрейт : 24, 1 Кбит/сек
    ElementCount : 3210
    Размер потока : 15, 4 Мбайт (0%)
    Язык : English
    Default : Нет
    Forced : Нет
    Меню
    00: 00: 00.000 : en: (01)00: 00: 00: 000
    00: 02: 25.687 : en: (02)00: 02: 25: 687
    00: 05: 05.888 : en: (03)00: 05: 05: 888
    00: 08: 53.366 : en: (04)00: 08: 53: 366
    00: 11: 17.426 : en: (05)00: 11: 17: 426
    00: 15: 06.071 : en: (06)00: 15: 06: 071
    00: 19: 03.976 : en: (07)00: 19: 03: 976
    00: 21: 41.717 : en: (08)00: 21: 41: 717
    00: 24: 39.394 : en: (09)00: 24: 39: 394
    00: 27: 57.384 : en: (10)00: 27: 57: 384
    00: 32: 03.755 : en: (11)00: 32: 03: 755
    00: 34: 20.975 : en: (12)00: 34: 20: 975
    00: 36: 20.803 : en: (13)00: 36: 20: 803
    00: 40: 45.526 : en: (14)00: 40: 45: 526
    00: 43: 41.535 : en: (15)00: 43: 41: 535
    00: 48: 57.851 : en: (16)00: 48: 57: 851
    00: 51: 12.069 : en: (17)00: 51: 12: 069
    00: 55: 49.596 : en: (18)00: 55: 49: 596
    00: 58: 49.234 : en: (19)00: 58: 49: 234
    01: 00: 42.680 : en: (20)01: 00: 42: 680
    01: 05: 19.665 : en: (21)01: 05: 19: 665
    01: 07: 40.931 : en: (22)01: 07: 40: 931
    01: 10: 26.138 : en: (23)01: 10: 26: 138
    01: 13: 11.303 : en: (24)01: 13: 11: 303
    01: 15: 29.608 : en: (25)01: 15: 29: 608
    01: 19: 42.861 : en: (26)01: 19: 42: 861
    01: 25: 10.396 : en: (27)01: 25: 10: 396
    01: 28: 08.283 : en: (28)01: 28: 08: 283
    01: 33: 29.353 : en: (29)01: 33: 29: 353

    Скриншоты для ознакомления




    Все одноименные релизы в Клубе Время раздачи: 24/7 (до появления первых 3-5 скачавших)


    Онлайн видео Подарок на Рождество 2



    Подарок на Рождество 2/Jingle All the Way 2 (2014) BDRip [H.264/1080p]
    Рейтинг →
     (голосов: 1, оценка 5/5, голосовать можно 1 раз )

    Другие торренты по теме:

  • Подарок на Рождество 2 / Jingle All the Way 2 (2014) BDRip [1080p] [EN / EN, Sp, Fr Sub]
  • Подарок на Рождество 2 / Jingle All the Way 2 (2014) HDRip
  • Подарок на Рождество / Jingle All the Way (1996) BDRip [H.264 / 1080p]


    • Комментарии (0):

      Информация

      Информация

        Посетители, находящиеся в группе Гости, не могут оставлять комментарии в данной новости.

        ↓ Меню




        ↓ Опрос

        Вы добавили сайт в закладки?
        Да
        Нет


        Top 10 за месяц (Фильмы)