.
Авторизация | Регистрация
Хочешь лучшие торренты? Добавь свой email!
Добавить

Торрент скачать бесплатно

  • support: webmaster@btracker.club
» » Подарок на Рождество / Jingle All the Way (1996) BDRip [H.264 / 1080p] торрент скачать бесплатно


    Подарок на Рождество / Jingle All the Way (1996) BDRip [H.264 / 1080p] торрент скачать бесплатно

    Опубликовал: fregat | Дата: 30-12-2018, 16:12 | .torrent скачали: 0

    Подарок на Рождество / Jingle All the Way (1996) BDRip [H.264 / 1080p]Производство: США/1492 Pictures, 20th Century Fox Film Corporation
    Жанр: Комедия, семейный
    Режиссер: Брайан Левант

    Актеры
    Арнольд Шварценеггер, Синбад, Фил Хартмен, Рита Уилсон, Роберт Конрад, Мартин Мулл, Джейк Ллойд, Джеймс Белуши, Э.Дж. Де Ла Пена, Лорейн Ньюмен

    Описание

    Ужасно занятый на работе отец постоянно опаздывает на семейные мероприятия. После очередной неявки на выступление собственного сына по карате он обещает купить ему на Рождество суперигрушку — Турбомена и, естественно, в суете рождественских хлопот благополучно забывает об обещании.
    И вот начинается лихорадочная гонка за упомянутой игрушкой в самый последний день. Но уж больно много желающих, а игрушек осталось всего ничего.

    Возраст: 0+ (для любой зрительской аудитории)
    Рейтинг MPAA: PG (рекомендуется присутствие родителей)
    Продолжительность: 01: 29: 32
    Качество видео: BDRip (1080p)
    Перевод: Профессиональный (многоголосый, закадровый), авторский
    Субтитры: Русские (Full), английские (Full)
    Видео: AVC/H.264, 1920x1040, ~10, 5 Mbps
    Аудио #1: AC3, 6 ch, 448 Kbps - Многоголосый (BD CEE)
    Аудио #2: AC3, 2 ch, 192 Kbps - Многоголосый (Первый канал)
    Аудио #3: AC3, 2 ch, 192 Kbps - Многоголосый (Лазер-Видео)
    Аудио #4: AC3, 6 ch, 448 Kbps - Авторский (Ю.Живов)
    Аудио #5: AC3, 6 ch, 640 Kbps - Английский

    Общее
    Уникальный идентификатор : 203165989001203451795790568852948283807 (0x98D8589FE5D5278D863C1F75BCE4719F)
    Полное имя : E: NNMПодарок на РождествоPodarok na Rozhdestvo 1996 BDRip 1080p.mkv
    Формат : Matroska
    Версия формата : Version 2
    Размер файла : 7, 75 Гбайт
    Продолжительность : 1 ч. 29 м.
    Общий поток : 12, 4 Мбит/сек
    Дата кодирования : UTC 2014-04-03 04: 17: 25
    Программа кодирования : mkvmerge v5.8.0 (\'No Sleep/Pillow\') built on Sep 2 2012 15: 37: 04
    Библиотека кодирования : libebml v1.2.3 + libmatroska v1.3.0
    Видео
    Идентификатор : 1
    Формат : AVC
    Формат/Информация : Advanced Video Codec
    Профиль формата : High@L4.1
    Настройки формата : CABAC/4 Ref Frames
    Параметр CABAC формата : Да
    Параметр RefFrames формата : 4 кадра
    Идентификатор кодека : V_MPEG4/ISO/AVC
    Продолжительность : 1 ч. 29 м.
    Битрейт : 10, 5 Мбит/сек
    Ширина : 1920 пикселей
    Высота : 1040 пикселей
    Соотношение сторон : 1, 85: 1
    Режим частоты кадров : Постоянный
    Частота кадров : 23, 976 (24000/1001) кадра/сек
    Цветовое пространство : YUV
    Субдискретизация насыщенности : 4: 2: 0
    Битовая глубина : 8 бит
    Тип развёртки : Прогрессивная
    Бит/(Пиксели*Кадры) : 0.219
    Размер потока : 6, 39 Гбайт (83%)
    Библиотека кодирования : x264 core 140 r2377 1ca7bb9
    Настройки программы : cabac=1/ref=4/deblock=1: -3: -2/analyse=0x3: 0x133/me=umh/subme=11/psy=1/psy_rd=1.00: 0.00/mixed_ref=1/me_range=32/chroma_me=1/trellis=2/8x8dct=1/cqm=0/deadzone=21, 11/fast_pskip=0/chroma_qp_offset=-2/threads=12/lookahead_threads=1/sliced_threads=0/nr=0/decimate=1/interlaced=0/bluray_compat=0/constrained_intra=0/bframes=8/b_pyramid=2/b_adapt=2/b_bias=0/direct=3/weightb=1/open_gop=0/weightp=2/keyint=240/keyint_min=23/scenecut=40/intra_refresh=0/rc=2pass/mbtree=0/bitrate=10480/ratetol=2.0/qcomp=0.60/qpmin=0/qpmax=69/qpstep=4/cplxblur=20.0/qblur=0.5/ip_ratio=1.40/pb_ratio=1.30/aq=2: 0.90
    Язык : English
    Default : Да
    Forced : Нет
    Аудио #1
    Идентификатор : 2
    Формат : AC-3
    Формат/Информация : Audio Coding 3
    Идентификатор кодека : A_AC3
    Продолжительность : 1 ч. 29 м.
    Вид битрейта : Постоянный
    Битрейт : 448 Кбит/сек
    Каналы : 6 каналов
    Расположение каналов : Front: L C R, Side: L R, LFE
    Частота : 48, 0 КГц
    Частота кадров : 31, 250 кадров/сек (1536 SPF)
    Битовая глубина : 16 бит
    Метод сжатия : С потерями
    Размер потока : 287 Мбайт (4%)
    Заголовок : MVO Blu-Ray CEE
    Язык : Russian
    ServiceKind/String : Complete Main
    Default : Да
    Forced : Нет
    Аудио #2
    Идентификатор : 3
    Формат : AC-3
    Формат/Информация : Audio Coding 3
    Идентификатор кодека : A_AC3
    Продолжительность : 1 ч. 29 м.
    Вид битрейта : Постоянный
    Битрейт : 192 Кбит/сек
    Каналы : 2 канала
    Расположение каналов : Front: L R
    Частота : 48, 0 КГц
    Частота кадров : 31, 250 кадров/сек (1536 SPF)
    Битовая глубина : 16 бит
    Метод сжатия : С потерями
    Размер потока : 123 Мбайт (2%)
    Заголовок : Первый канал
    Язык : Russian
    ServiceKind/String : Complete Main
    Default : Нет
    Forced : Нет
    Аудио #3
    Идентификатор : 4
    Формат : AC-3
    Формат/Информация : Audio Coding 3
    Идентификатор кодека : A_AC3
    Продолжительность : 1 ч. 29 м.
    Вид битрейта : Постоянный
    Битрейт : 192 Кбит/сек
    Каналы : 2 канала
    Расположение каналов : Front: L R
    Частота : 48, 0 КГц
    Частота кадров : 31, 250 кадров/сек (1536 SPF)
    Битовая глубина : 16 бит
    Метод сжатия : С потерями
    Размер потока : 123 Мбайт (2%)
    Заголовок : Lazer-Video
    Язык : Russian
    ServiceKind/String : Complete Main
    Default : Нет
    Forced : Нет
    Аудио #4
    Идентификатор : 5
    Формат : AC-3
    Формат/Информация : Audio Coding 3
    Идентификатор кодека : A_AC3
    Продолжительность : 1 ч. 29 м.
    Вид битрейта : Постоянный
    Битрейт : 448 Кбит/сек
    Каналы : 6 каналов
    Расположение каналов : Front: L C R, Side: L R, LFE
    Частота : 48, 0 КГц
    Частота кадров : 31, 250 кадров/сек (1536 SPF)
    Битовая глубина : 16 бит
    Метод сжатия : С потерями
    Размер потока : 287 Мбайт (4%)
    Заголовок : Zhivov
    Язык : Russian
    ServiceKind/String : Complete Main
    Default : Нет
    Forced : Нет
    Аудио #5
    Идентификатор : 6
    Формат : AC-3
    Формат/Информация : Audio Coding 3
    Идентификатор кодека : A_AC3
    Продолжительность : 1 ч. 29 м.
    Вид битрейта : Постоянный
    Битрейт : 640 Кбит/сек
    Каналы : 6 каналов
    Расположение каналов : Front: L C R, Side: L R, LFE
    Частота : 48, 0 КГц
    Частота кадров : 31, 250 кадров/сек (1536 SPF)
    Битовая глубина : 16 бит
    Метод сжатия : С потерями
    Размер потока : 410 Мбайт (5%)
    Заголовок : Eng
    Язык : English
    ServiceKind/String : Complete Main
    Default : Нет
    Forced : Нет
    Текст #1
    Идентификатор : 7
    Формат : UTF-8
    Идентификатор кодека : S_TEXT/UTF8
    Идентификатор кодека/Информация : UTF-8 Plain Text
    Заголовок : rus full
    Язык : Russian
    Default : Нет
    Forced : Нет
    Текст #2
    Идентификатор : 8
    Формат : UTF-8
    Идентификатор кодека : S_TEXT/UTF8
    Идентификатор кодека/Информация : UTF-8 Plain Text
    Заголовок : eng full
    Язык : English
    Default : Нет
    Forced : Нет
    Меню
    00: 00: 00.000 : : Chapter 01
    00: 07: 58.144 : : Chapter 02
    00: 13: 46.242 : : Chapter 03
    00: 16: 21.855 : : Chapter 04
    00: 18: 36.740 : : Chapter 05
    00: 22: 42.527 : : Chapter 06
    00: 24: 48.862 : : Chapter 07
    00: 26: 51.943 : : Chapter 08
    00: 29: 14.002 : : Chapter 09
    00: 31: 29.512 : : Chapter 10
    00: 37: 39.297 : : Chapter 11
    00: 39: 10.723 : : Chapter 12
    00: 42: 15.366 : : Chapter 13
    00: 45: 34.189 : : Chapter 14
    00: 53: 30.623 : : Chapter 15
    00: 59: 37.740 : : Chapter 16
    01: 01: 56.379 : : Chapter 17
    01: 04: 40.626 : : Chapter 18
    01: 09: 00.302 : : Chapter 19
    01: 10: 40.819 : : Chapter 20
    01: 14: 15.367 : : Chapter 21
    01: 18: 27.035 : : Chapter 22
    01: 21: 21.501 : : Chapter 23
    01: 28: 46.612 : : Chapter 24

    Скриншоты для ознакомления




    Все одноименные релизы в Клубе Время раздачи: 24/7 (до появления первых 3-5 скачавших)


    Онлайн видео Подарок на Рождество



    Подарок на Рождество/Jingle All the Way (1996) BDRip [H.264/1080p]
    Рейтинг →
     (голосов: 1, оценка 3/5, голосовать можно 1 раз )

    Другие торренты по теме:

  • Подарок на Рождество 2 / Jingle All the Way 2 (2014) BDRip [1080p] [EN / EN, Sp, Fr Sub]
  • Подарок на Рождество 2 / Jingle All the Way 2 (2014) HDRip
  • Подарок на Рождество 2 / Jingle All the Way 2 (2014) BDRip [H.264 / 1080p]


    • Комментарии (0):

      Информация

      Информация

        Посетители, находящиеся в группе Гости, не могут оставлять комментарии в данной новости.

        ↓ Меню




        ↓ Опрос

        Вы добавили сайт в закладки?
        Да
        Нет


        Top 10 за месяц (Фильмы)