.
Авторизация | Регистрация
Хочешь лучшие торренты? Добавь свой email!
Добавить

Торрент скачать бесплатно

  • support: webmaster@btracker.club
» » Аксель / A-X-L (2018) BDRemux [EN / EN, Sp Sub] торрент скачать бесплатно


    Аксель / A-X-L (2018) BDRemux [EN / EN, Sp Sub] торрент скачать бесплатно

    Опубликовал: fregat | Дата: 30-12-2018, 16:12 | .torrent скачали: 0

    Аксель / A-X-L (2018) BDRemux [EN / EN, Sp Sub]Производство: США/Global Road Entertainment, Lakeshore Entertainment, Phantom Four Films
    Жанр: Фантастика, Боевик, Приключения
    Режиссер: Оливер Дэйли

    Актеры
    Алекс Нюстадтер, Бекки Джи, Алекс МакНиколл, Амин Наземзадех, Томас Джейн, Лу Тэйлор Пуччи, Патрисия де Леон, Нико Гуардадо, Мари-Франсуа Теодор, Тед МакГинли

    Описание

    Юный мотоциклист Майлз случайно находит новую военную разработку — гигантскую собаку-робота по имени Аксель. Обладая искусственным интеллектом следующего поколения, но с огромным сердцем верного пса, Аксель быстро становится лучшим другом парня. Но военные не намерены просто так отказаться от металлического зверя, который превзошел в развитии их самые смелые ожидания. История настоящей дружбы и преданности вышла на новый технологический уровень, но вечные законы жизни остались прежними: ты всегда в ответе за тех, кого приручил.

    Возраст: 6+ (зрителям, достигшим 6 лет)
    Рейтинг MPAA: PG (рекомендуется присутствие родителей)
    Продолжительность: 01: 38: 36
    Качество видео: BDRemux
    Перевод: Отсутствует
    Язык озвучки: Английский
    Субтитры: английские, испанские
    Видео: AVC/H.264, 1920x1080, ~32.6 Mbps
    Аудио: DTS-HD MA, 6 ch, 4 087 Kbps

    General
    Unique ID : 29331014931419256242235168370419089431 (0x1610F2AFD66D61A32E107C11A4C4C017)
    Complete name : A.X.L.2018.BluRay.REMUX.1080p.AVC.DTS-HD.MA5.1-iFTA.X.L.2018.BluRay.REMUX.1080p.AVC.DTS-HD.MA5.1-iFT.mkv
    Format : Matroska
    Format version : Version 4
    File size : 25.3 GiB
    Duration : 1 h 38 min
    Overall bit rate mode : Variable
    Overall bit rate : 36.8 Mb/s
    Encoded date : UTC 2018-12-28 05: 45: 18
    Writing application : mkvmerge v29.0.0 (\'Like It Or Not\') 64-bit
    Writing library : libebml v1.3.6 + libmatroska v1.4.9
    Video
    ID : 1
    Format : AVC
    Format/Info : Advanced Video Codec
    Format profile : High@L4.1
    Format settings : CABAC/4 Ref Frames
    Format settings, CABAC : Yes
    Format settings, RefFrames : 4 frames
    Format settings, GOP : M=3, N=12
    Codec ID : V_MPEG4/ISO/AVC
    Duration : 1 h 38 min
    Bit rate mode : Variable
    Bit rate : 32.6 Mb/s
    Maximum bit rate : 35.0 Mb/s
    Width : 1 920 pixels
    Height : 1 080 pixels
    Display aspect ratio : 16: 9
    Frame rate mode : Constant
    Frame rate : 23.976 (24000/1001) FPS
    Color space : YUV
    Chroma subsampling : 4: 2: 0
    Bit depth : 8 bits
    Scan type : Progressive
    Bits/(Pixel*Frame) : 0.656
    Stream size : 22.5 GiB (89%)
    Default : Yes
    Forced : No
    Audio
    ID : 2
    Format : DTS XLL
    Format/Info : Digital Theater Systems
    Commercial name : DTS-HD Master Audio
    Codec ID : A_DTS
    Duration : 1 h 38 min
    Bit rate mode : Variable
    Bit rate : 4 087 kb/s
    Channel(s) : 6 channels
    Channel layout : C L R Ls Rs LFE
    Sampling rate : 48.0 kHz
    Frame rate : 93.750 FPS (512 SPF)
    Bit depth : 24 bits
    Compression mode : Lossless
    Stream size : 2.82 GiB (11%)
    Default : Yes
    Forced : No
    Text #1
    ID : 3
    Format : PGS
    Muxing mode : zlib
    Codec ID : S_HDMV/PGS
    Codec ID/Info : Picture based subtitle format used on BDs/HD-DVDs
    Duration : 1 h 28 min
    Bit rate : 38.4 kb/s
    Count of elements : 2420
    Stream size : 24.3 MiB (0%)
    Default : Yes
    Forced : No
    Text #2
    ID : 4
    Format : PGS
    Muxing mode : zlib
    Codec ID : S_HDMV/PGS
    Codec ID/Info : Picture based subtitle format used on BDs/HD-DVDs
    Duration : 1 h 28 min
    Bit rate : 34.5 kb/s
    Count of elements : 2116
    Stream size : 21.8 MiB (0%)
    Default : No
    Forced : No
    Menu
    00: 00: 00.000 : : Capítulo 01
    00: 05: 03.887 : : Capítulo 02
    00: 10: 06.064 : : Capítulo 03
    00: 16: 35.494 : : Capítulo 04
    00: 19: 37.927 : : Capítulo 05
    00: 23: 11.849 : : Capítulo 06
    00: 30: 32.080 : : Capítulo 07
    00: 36: 25.266 : : Capítulo 08
    00: 44: 47.643 : : Capítulo 09
    00: 49: 35.264 : : Capítulo 10
    00: 56: 14.788 : : Capítulo 11
    01: 01: 15.005 : : Capítulo 12
    01: 09: 45.473 : : Capítulo 13
    01: 14: 41.727 : : Capítulo 14
    01: 18: 30.414 : : Capítulo 15
    01: 25: 27.080 : : Capítulo 16

    Скриншоты для ознакомления



    Все одноименные релизы в Клубе
    Время раздачи: с 13: 00 до 23: 00 (до появления первых 3-5 скачавших)


    Онлайн видео Аксель



    Аксель/A-X-L (2018) BDRemux [EN/EN, Sp Sub]
    Рейтинг →
     (голосов: 1, оценка 4/5, голосовать можно 1 раз )

    Другие торренты по теме:

  • Аксель / A-X-L (2018) WEBRip [Звук с TS] [AD]
  • Аксель / A-X-L (2018) WEBRip [H.264 / 720p-LQ] [Звук с TS] [AD]
  • Аксель / A-X-L (2018) WEB-DL [H.264 / 1080p-LQ] [EN]
  • Аксель / A-X-L (2018) BDRip [H.264 / 720p-LQ] [Line, AD]
  • Аксель / A-X-L (2018) BDRip [H.264 / 1080p] [PR]
  • Аксель / A-X-L (2018) HDRip
  • Аксель / A-X-L (2018) BDRip [H.264]
  • Аксель / A-X-L (2018) BDRemux [H.264 / 1080p]


    • Комментарии (0):

      Информация

      Информация

        Посетители, находящиеся в группе Гости, не могут оставлять комментарии в данной новости.

        ↓ Меню




        ↓ Опрос

        Вы добавили сайт в закладки?
        Да
        Нет


        Top 10 за месяц (Фильмы)