.
Авторизация | Регистрация

Торрент скачать бесплатно

  • support: webmaster@btracker.club
» » На последнем дыхании / Breathless (1983) BDRip [H.264 / 720p] торрент скачать бесплатно


    На последнем дыхании / Breathless (1983) BDRip [H.264 / 720p] торрент скачать бесплатно

    Дата: 30-12-2018, 16:12 | .torrent скачали: 0

    На последнем дыхании / Breathless (1983) BDRip [H.264 / 720p]Производство: США/Breathless Associates, Miko Productions
    Жанр: Боевик, триллер, драма, мелодрама
    Режиссер: Джим МакБрайд

    Актеры
    Ричард Гир, Валери Каприски, Арт Метрано, Джон П. Райан, Уильям Теппер, Гарри Гудроу, Роберт Данн, Эжен Лурье, Лиза Джейн Перски, Джеймс Хонг

    Описание

    Обстоятельства складываются так, что Джесси необходимо срочно уносить ноги из Лас-Вегаса. Этот импульсивный молодой человек не привык жить по закону. Он угоняет автомобиль, а по пути в Лос-Анджелес ему приходится застрелить полицейского. По мере приближения к городу его положение все более усугубляется. Кажется, что весь мир ополчился против него.
    Но, как ни странно, именно в это время он знакомится с девушкой, которая заставляет его сердце то колотиться в бешеном темпе, то замирать от остроты чувств. Он ждал эту девушку всю жизнь. Но теперь, когда за ним охотится вся полиция штата, думать приходится совсем о другом.

    Возраст: 16+ (зрителям, достигшим 16 лет)
    Рейтинг MPAA: R (лицам до 17 лет обязательно присутствие взрослого)
    Продолжительность: 01: 40: 25
    Качество видео: BDRip (720p)
    Перевод: Профессиональный многоголосый, авторский
    Субтитры: Английские (Full)
    Видео: AVC/H.264, 1280x694, ~5498 Kbps
    Аудио #1: AC3, 2 ch, 192 Kbps - Профессиональный многоголосый
    Аудио #2: AC3, 2 ch, 192 Kbps - Авторский (А. Гаврилов)
    Аудио #3: AC3, 2 ch, 192 Kbps - Авторский (В. Горчаков)
    Аудио #4: AC3, 2 ch, 192 Kbps - Авторский (М. Иванов)
    Аудио #5: AC3, 2 ch, 192 Kbps - Английский

    Общее
    Уникальный идентификатор : 170743351484745806162711077790667752123 (0x8073F92D00ECF17AA1C8DDAA7273C2BB)
    Полное имя : E: NNMНа последнем дыханииBreathless 1983 BDRip 720p.mkv
    Формат : Matroska
    Версия формата : Version 4/Version 2
    Размер файла : 4, 53 Гбайт
    Продолжительность : 1 ч. 40 м.
    Общий поток : 6461 Кбит/сек
    Дата кодирования : UTC 2016-01-07 15: 58: 07
    Программа кодирования : mkvmerge v8.2.0 (\'World of Adventure\') 64bit
    Библиотека кодирования : libebml v1.3.1 + libmatroska v1.4.2
    Видео
    Идентификатор : 1
    Формат : AVC
    Формат/Информация : Advanced Video Codec
    Профиль формата : High@L4.1
    Настройки формата : CABAC/9 Ref Frames
    Параметр CABAC формата : Да
    Параметр RefFrames формата : 9 кадров
    Идентификатор кодека : V_MPEG4/ISO/AVC
    Продолжительность : 1 ч. 40 м.
    Битрейт : 5498 Кбит/сек
    Ширина : 1280 пикселей
    Высота : 694 пикселя
    Соотношение сторон : 1, 85: 1
    Режим частоты кадров : Постоянный
    Частота кадров : 23, 976 (24000/1001) кадра/сек
    Цветовое пространство : YUV
    Субдискретизация насыщенности : 4: 2: 0
    Битовая глубина : 8 бит
    Тип развёртки : Прогрессивная
    Бит/(Пиксели*Кадры) : 0.258
    Размер потока : 3, 86 Гбайт (85%)
    Библиотека кодирования : x264 core 146 r2538 121396c
    Настройки программы : cabac=1/ref=9/deblock=1: -3: -3/analyse=0x3: 0x113/me=umh/subme=10/psy=1/psy_rd=1.00: 0.15/mixed_ref=1/me_range=32/chroma_me=1/trellis=2/8x8dct=1/cqm=0/deadzone=21, 11/fast_pskip=1/chroma_qp_offset=-3/threads=6/lookahead_threads=1/sliced_threads=0/nr=0/decimate=1/interlaced=0/bluray_compat=0/constrained_intra=0/bframes=9/b_pyramid=2/b_adapt=2/b_bias=0/direct=1/weightb=1/open_gop=0/weightp=2/keyint=230/keyint_min=23/scenecut=40/intra_refresh=0/rc_lookahead=40/rc=crf/mbtree=0/crf=18.4/qcomp=0.60/qpmin=0/qpmax=69/qpstep=4/vbv_maxrate=40000/vbv_bufsize=50000/crf_max=0.0/nal_hrd=none/filler=0/ip_ratio=1.40/pb_ratio=1.30/aq=1: 1.00
    Язык : English
    Default : Да
    Forced : Нет
    Аудио #1
    Идентификатор : 2
    Формат : AC-3
    Формат/Информация : Audio Coding 3
    Идентификатор кодека : A_AC3
    Продолжительность : 1 ч. 40 м.
    Вид битрейта : Постоянный
    Битрейт : 192 Кбит/сек
    Каналы : 2 канала
    Расположение каналов : Front: L R
    Частота : 48, 0 КГц
    Частота кадров : 31, 250 кадров/сек (1536 SPF)
    Битовая глубина : 16 бит
    Метод сжатия : С потерями
    Размер потока : 138 Мбайт (3%)
    Заголовок : MVO
    Язык : Russian
    ServiceKind/String : Complete Main
    Default : Да
    Forced : Нет
    Аудио #2
    Идентификатор : 3
    Формат : AC-3
    Формат/Информация : Audio Coding 3
    Идентификатор кодека : A_AC3
    Продолжительность : 1 ч. 40 м.
    Вид битрейта : Постоянный
    Битрейт : 192 Кбит/сек
    Каналы : 2 канала
    Расположение каналов : Front: L R
    Частота : 48, 0 КГц
    Частота кадров : 31, 250 кадров/сек (1536 SPF)
    Битовая глубина : 16 бит
    Метод сжатия : С потерями
    Размер потока : 138 Мбайт (3%)
    Заголовок : AVO (Андрей Гаврилов)
    Язык : Russian
    ServiceKind/String : Complete Main
    Default : Нет
    Forced : Нет
    Аудио #3
    Идентификатор : 4
    Формат : AC-3
    Формат/Информация : Audio Coding 3
    Идентификатор кодека : A_AC3
    Продолжительность : 1 ч. 40 м.
    Вид битрейта : Постоянный
    Битрейт : 192 Кбит/сек
    Каналы : 2 канала
    Расположение каналов : Front: L R
    Частота : 48, 0 КГц
    Частота кадров : 31, 250 кадров/сек (1536 SPF)
    Битовая глубина : 16 бит
    Метод сжатия : С потерями
    Размер потока : 138 Мбайт (3%)
    Заголовок : AVO (Василий Горчаков)
    Язык : Russian
    ServiceKind/String : Complete Main
    Default : Нет
    Forced : Нет
    Аудио #4
    Идентификатор : 5
    Формат : AC-3
    Формат/Информация : Audio Coding 3
    Идентификатор кодека : A_AC3
    Продолжительность : 1 ч. 40 м.
    Вид битрейта : Постоянный
    Битрейт : 192 Кбит/сек
    Каналы : 2 канала
    Расположение каналов : Front: L R
    Частота : 48, 0 КГц
    Частота кадров : 31, 250 кадров/сек (1536 SPF)
    Битовая глубина : 16 бит
    Метод сжатия : С потерями
    Размер потока : 138 Мбайт (3%)
    Заголовок : AVO (Михаил Иванов)
    Язык : Russian
    ServiceKind/String : Complete Main
    Default : Нет
    Forced : Нет
    Аудио #5
    Идентификатор : 6
    Формат : AC-3
    Формат/Информация : Audio Coding 3
    Идентификатор кодека : A_AC3
    Продолжительность : 1 ч. 40 м.
    Вид битрейта : Постоянный
    Битрейт : 192 Кбит/сек
    Каналы : 2 канала
    Расположение каналов : Front: L R
    Частота : 48, 0 КГц
    Частота кадров : 31, 250 кадров/сек (1536 SPF)
    Битовая глубина : 16 бит
    Метод сжатия : С потерями
    Размер потока : 138 Мбайт (3%)
    Заголовок : Original
    Язык : English
    ServiceKind/String : Complete Main
    Default : Нет
    Forced : Нет
    Текст
    Идентификатор : 7
    Формат : UTF-8
    Идентификатор кодека : S_TEXT/UTF8
    Идентификатор кодека/Информация : UTF-8 Plain Text
    Продолжительность : 1 ч. 39 м.
    Битрейт : 52 бит/сек
    ElementCount : 1364
    Размер потока : 38, 6 Кбайт (0%)
    Заголовок : английский (для слабослышащих)
    Язык : English
    Default : Нет
    Forced : Нет

    Скриншоты для ознакомления



    Все одноименные релизы в Клубе Время раздачи: 24/7 (до появления первых 3-5 скачавших)


    Онлайн видео На последнем дыхании



    На последнем дыхании/Breathless (1983) BDRip [H.264/720p]
    Рейтинг →
     (голосов: 1, оценка 3/5, голосовать можно 1 раз )

    Другие торренты по теме:

  • На последнем дыхании / Переводя дыхание / Breathless / A bout de souffle (1960) [The Criterion Collection] BDRip [H.264 / 720p] скачать через торрент бесплатно
  • На последнем дыхании / A bout de souffle (1960) BDRip [720p] [hand made colored]
  • На последнем дыхании / A bout de souffle (1960) BDRip [H.264 / 720p] [hand made colored]
  • На последнем дыхании / Breathless (1983) DVDRip [H.264]
  • На последнем дыхании / Breathless (1983) BDRip [H265 / 1080p] [10-bit]


    • Комментарии (0):

      Информация

      Информация

        Посетители, находящиеся в группе Гости, не могут оставлять комментарии в данной новости.

        ↓ Меню




        ↓ Опрос

        Вы добавили сайт в закладки?
        Да
        Нет


        Top 10 за месяц (Фильмы)