.
Авторизация | Регистрация

Торрент скачать бесплатно

  • support: webmaster@btracker.club
» » Ярди / Yardie (2018) BDRip [H.264 / 720p] [MVO] торрент скачать бесплатно


    Ярди / Yardie (2018) BDRip [H.264 / 720p] [MVO] торрент скачать бесплатно

    Дата: 30-12-2018, 16:12 | .torrent скачали: 0

    Ярди / Yardie (2018) BDRip [H.264 / 720p] [MVO]Производство: Великобритания/Studiocanal, BBC Films, Screen Yorkshire
    Жанр: Криминал
    Режиссер: Идрис Эльба

    Актеры
    Антуан Эклестон, Фрайзер Джеймс, Амл Амин, Рэйон МакЛинн, Марк Смит, Шелдон Шеперд, Кристофер Дали, Решона Дуглас

    Описание

    Главный герой, родом с Ямайки, никак не может смириться со смертью старшего брата, которого убили 10 лет назад. Он едет в Лондон, где сходится с бывшей возлюбленной и впервые знакомится с дочкой. Когда герой решает начать новую жизнь, покончив с грязным бизнесом, судьба сталкивает его с убийцей брата, и тогда он вступает на путь мести, рискуя потерять всё, что ему дорого.

    Продолжительность: 01: 41: 42
    Качество видео: BDRip
    Перевод: Двуголосый закадровый, любительский (HiWayGrope)
    Субтитры: Английские (Full)
    Видео: AVC/H.264, 1280x536, ~4641 Kbps
    Аудио 1: АC3, 2 ch, 192 Kbps | русский
    Аудио 2: DTS, 6 ch, 1509 Kbps | английский

    Общее
    Уникальный идентификатор : 52994167352117029736039385583712092192 (0x27DE4E2D42DDD347330CDD239B0E4020)
    Полное имя : D: FILMЬlYardie.2018.mkv
    Формат : Matroska
    Версия формата : Version 4
    Размер файла : 4, 50 Гбайт
    Продолжительность : 1 ч. 41 м.
    Общий поток : 6335 Кбит/сек
    Дата кодирования : UTC 2018-12-29 18: 32: 52
    Программа кодирования : mkvmerge v29.0.0 (\'Like It Or Not\') 64-bit
    Библиотека кодирования : libebml v1.3.6 + libmatroska v1.4.9
    Видео
    Идентификатор : 1
    Формат : AVC
    Формат/Информация : Advanced Video Codec
    Профиль формата : High@L4.1
    Настройки формата : CABAC/5 Ref Frames
    Параметр CABAC формата : Да
    Параметр RefFrames формата : 5 кадров
    Идентификатор кодека : V_MPEG4/ISO/AVC
    Продолжительность : 1 ч. 41 м.
    Битрейт : 4641 Кбит/сек
    Ширина : 1280 пикселей
    Высота : 536 пикселей
    Соотношение сторон : 2, 40: 1
    Режим частоты кадров : Постоянный
    Частота кадров : 24, 000 кадра/сек
    Цветовое пространство : YUV
    Субдискретизация насыщенности : 4: 2: 0
    Битовая глубина : 8 бит
    Тип развёртки : Прогрессивная
    Бит/(Пиксели*Кадры) : 0.282
    Размер потока : 3, 29 Гбайт (73%)
    Библиотека кодирования : x264 core 157 r2935 545de2f
    Настройки программы : cabac=1/ref=5/deblock=1: -3: -3/analyse=0x3: 0x113/me=umh/subme=8/psy=1/psy_rd=1.00: 0.00/mixed_ref=1/me_range=32/chroma_me=1/trellis=2/8x8dct=1/cqm=0/deadzone=21, 11/fast_pskip=1/chroma_qp_offset=-2/threads=17/lookahead_threads=2/sliced_threads=0/nr=0/decimate=1/interlaced=0/bluray_compat=0/constrained_intra=0/bframes=3/b_pyramid=2/b_adapt=2/b_bias=0/direct=3/weightb=1/open_gop=0/weightp=2/keyint=240/keyint_min=24/scenecut=40/intra_refresh=0/rc_lookahead=50/rc=2pass/mbtree=1/bitrate=4641/ratetol=1.0/qcomp=0.60/qpmin=0/qpmax=69/qpstep=4/cplxblur=20.0/qblur=0.5/ip_ratio=1.40/aq=3: 0.80
    Default : Да
    Forced : Нет
    Аудио #1
    Идентификатор : 2
    Формат : AC-3
    Формат/Информация : Audio Coding 3
    Коммерческое название : Dolby Digital
    Идентификатор кодека : A_AC3
    Продолжительность : 1 ч. 41 м.
    Вид битрейта : Постоянный
    Битрейт : 192 Кбит/сек
    Каналы : 2 канала
    Channel layout : L R
    Частота : 48, 0 КГц
    Частота кадров : 31, 250 кадров/сек (1536 SPF)
    Битовая глубина : 16 бит
    Метод сжатия : С потерями
    Размер потока : 140 Мбайт (3%)
    Язык : Russian
    ServiceKind/String : Complete Main
    Default : Да
    Forced : Нет
    Аудио #2
    Идентификатор : 3
    Формат : DTS
    Формат/Информация : Digital Theater Systems
    Идентификатор кодека : A_DTS
    Продолжительность : 1 ч. 41 м.
    Вид битрейта : Постоянный
    Битрейт : 1509 Кбит/сек
    Каналы : 6 каналов
    Channel layout : C L R Ls Rs LFE
    Частота : 48, 0 КГц
    Частота кадров : 93, 750 кадра/сек (512 SPF)
    Битовая глубина : 24 бит
    Метод сжатия : С потерями
    Размер потока : 1, 07 Гбайт (24%)
    Язык : English
    Default : Нет
    Forced : Нет
    Текст
    Идентификатор : 4
    Формат : UTF-8
    Идентификатор кодека : S_TEXT/UTF8
    Идентификатор кодека/Информация : UTF-8 Plain Text
    Продолжительность : 1 ч. 34 м.
    Битрейт : 61 бит/сек
    ElementCount : 1217
    Размер потока : 43, 0 Кбайт (0%)
    Язык : English
    Default : Нет
    Forced : Нет
    Меню
    00: 00: 00.000 : en: Chapter 01
    00: 09: 15.083 : en: Chapter 02
    00: 15: 07.958 : en: Chapter 03
    00: 23: 05.167 : en: Chapter 04
    00: 33: 07.917 : en: Chapter 05
    00: 43: 47.667 : en: Chapter 06
    00: 53: 34.208 : en: Chapter 07
    00: 59: 48.833 : en: Chapter 08
    01: 06: 19.542 : en: Chapter 09
    01: 20: 51.000 : en: Chapter 10
    01: 29: 15.250 : en: Chapter 11
    01: 34: 55.458 : en: Chapter 12

    Скриншоты для ознакомления



    Все одноименные релизы в Клубе
    Время раздачи: с 09: 00 до 23: 30 (до появления первых 3-5 скачавших)


    Онлайн видео Ярди



    Ярди/Yardie (2018) BDRip [H.264/720p] [MVO]
    Рейтинг →
     (голосов: 1, оценка 3/5, голосовать можно 1 раз )

    Другие торренты по теме:

  • Ярди / Yardie (2018) BDRemux [EN / EN Sub]


    • Комментарии (0):

      Информация

      Информация

        Посетители, находящиеся в группе Гости, не могут оставлять комментарии в данной новости.

        ↓ Меню




        ↓ Опрос

        Вы добавили сайт в закладки?
        Да
        Нет


        Top 10 за месяц (Фильмы)