.
Авторизация | Регистрация

Торрент скачать бесплатно

  • support: webmaster@btracker.club
» » Достать Санту / Get Santa (2014) BDRip [H.264 / 1080p] [MVO] [PR] торрент скачать бесплатно


    Достать Санту / Get Santa (2014) BDRip [H.264 / 1080p] [MVO] [PR] торрент скачать бесплатно

    Дата: 30-12-2018, 16:12 | .torrent скачали: 0

    Достать Санту / Get Santa (2014) BDRip [H.264 / 1080p] [MVO] [PR]Производство: Великобритания, США, Film i Vаst, Scott Free Productions
    Жанр: Комедия, Семейный
    Режиссер: Кристофер Смит

    Актеры
    Джим Бродбент, Рейф Сполл, Кит Коннор, Юэн Бремнер, Уорвик Дэвис, Стивен Грэм, Джоэнна Скэнлэн, Джоди Уиттакер, Нонсо Анози, Мэтт Кинг

    Описание

    Отец и сын обнаруживают в своём гараже Санта-Клауса, потерпевшего крушение в результате неудачного перелёта и теперь скрывающегося от полиции. Перед героями встаёт самая ответственная задача на свете: спасти Рождество. Для этого им придется пройти сквозь огонь, воду и медные трубы: пуститься на поиски оленя Рудольфа, совершить путешествие в далёкую Лапландию, наладить отношения с группой эльфов и, наконец, вызволить Санту из-за решётки.

    Рейтинг MPAA: PG (рекомендуется присутствие родителей)
    Релиз от: ylnian
    Продолжительность: 01: 42: 47
    Качество видео: BDRip
    Перевод: Многоголосый закадровый, профессиональный (СВ Студия)
    Субтитры: Русские, английские
    Видео: AVC/H.264, 1920x800, ~12, 9 Mbps
    Аудио #1: AC3, 6 ch, 384 Kbps | Русский
    Аудио #2: AC3, 6 ch, 384 Kbps | Английский

    Общее
    Уникальный идентификатор : 249202094652021112510023475954446180847 (0xBB7A93DF85CC67E68947BACF09BF21EF)
    Полное имя : C: UsersUserDesktopNNMClubGet.Santa.2014.BDRip.1080p.mkv
    Формат : Matroska
    Версия формата : Version 2
    Размер файла : 9, 80 Гбайт
    Продолжительность : 1 ч. 42 м.
    Общий поток : 13, 6 Мбит/сек
    Название фильма : Get.Santa.2014.BDRip.1080p-ylnian
    Дата кодирования : UTC 2018-12-28 11: 33: 24
    Программа кодирования : mkvmerge v4.4.0 (\'Die Wiederkehr\') built on Oct 31 2010 21: 52: 48
    Библиотека кодирования : libebml v1.0.0 + libmatroska v1.0.0
    Видео
    Идентификатор : 1
    Формат : AVC
    Формат/Информация : Advanced Video Codec
    Профиль формата : High@L4.1
    Настройки формата : CABAC/4 Ref Frames
    Параметр CABAC формата : Да
    Параметр RefFrames формата : 4 кадра
    Идентификатор кодека : V_MPEG4/ISO/AVC
    Продолжительность : 1 ч. 42 м.
    Битрейт : 12, 9 Мбит/сек
    Ширина : 1920 пикселей
    Высота : 800 пикселей
    Соотношение сторон : 2, 40: 1
    Режим частоты кадров : Постоянный
    Частота кадров : 23, 976 (24000/1001) кадра/сек
    Цветовое пространство : YUV
    Субдискретизация насыщенности : 4: 2: 0
    Битовая глубина : 8 бит
    Тип развёртки : Прогрессивная
    Бит/(Пиксели*Кадры) : 0.350
    Размер потока : 9, 24 Гбайт (94%)
    Заголовок : Get.Santa.2014.BDRip.1080p-ylnian
    Библиотека кодирования : x264 core 157 r2935 545de2f
    Настройки программы : cabac=1/ref=4/deblock=1: -3: -3/analyse=0x3: 0x133/me=umh/subme=11/psy=1/psy_rd=1.05: 0.00/mixed_ref=1/me_range=64/chroma_me=1/trellis=2/8x8dct=1/cqm=0/deadzone=21, 11/fast_pskip=1/chroma_qp_offset=-4/threads=12/lookahead_threads=2/sliced_threads=0/nr=0/decimate=1/interlaced=0/bluray_compat=0/constrained_intra=0/bframes=9/b_pyramid=2/b_adapt=2/b_bias=0/direct=2/weightb=1/open_gop=0/weightp=2/keyint=250/keyint_min=23/scenecut=40/intra_refresh=0/rc_lookahead=250/rc=crf/mbtree=0/crf=16.2/qcomp=0.80/qpmin=0/qpmax=69/qpstep=4/vbv_maxrate=50000/vbv_bufsize=62500/crf_max=0.0/nal_hrd=none/filler=0/ip_ratio=1.30/pb_ratio=1.20/aq=2: 0.90
    Язык : English
    Default : Да
    Forced : Да
    Аудио #1
    Идентификатор : 2
    Формат : AC-3
    Формат/Информация : Audio Coding 3
    Коммерческое название : Dolby Digital
    Идентификатор кодека : A_AC3
    Продолжительность : 1 ч. 42 м.
    Вид битрейта : Постоянный
    Битрейт : 384 Кбит/сек
    Каналы : 6 каналов
    Channel layout : L R C LFE Ls Rs
    Частота : 48, 0 КГц
    Частота кадров : 31, 250 кадров/сек (1536 SPF)
    Битовая глубина : 16 бит
    Метод сжатия : С потерями
    Размер потока : 282 Мбайт (3%)
    Язык : Russian
    ServiceKind/String : Complete Main
    Default : Да
    Forced : Да
    Аудио #2
    Идентификатор : 4
    Формат : AC-3
    Формат/Информация : Audio Coding 3
    Коммерческое название : Dolby Digital
    Режим смешивания : Header stripping
    Идентификатор кодека : A_AC3
    Продолжительность : 1 ч. 42 м.
    Вид битрейта : Постоянный
    Битрейт : 384 Кбит/сек
    Каналы : 6 каналов
    Channel layout : L R C LFE Ls Rs
    Частота : 48, 0 КГц
    Частота кадров : 31, 250 кадров/сек (1536 SPF)
    Битовая глубина : 16 бит
    Метод сжатия : С потерями
    Размер потока : 282 Мбайт (3%)
    Язык : English
    ServiceKind/String : Complete Main
    Default : Нет
    Forced : Нет
    Текст #1
    Идентификатор : 5
    Формат : UTF-8
    Идентификатор кодека : S_TEXT/UTF8
    Идентификатор кодека/Информация : UTF-8 Plain Text
    Язык : Russian
    Default : Да
    Forced : Да
    Текст #2
    Идентификатор : 6
    Формат : UTF-8
    Идентификатор кодека : S_TEXT/UTF8
    Идентификатор кодека/Информация : UTF-8 Plain Text
    Язык : English
    Default : Нет
    Forced : Нет
    Меню
    00: 00: 00.000 : en: CHAPTER01
    00: 08: 56.577 : en: CHAPTER02
    00: 17: 25.377 : en: CHAPTER03
    00: 27: 40.742 : en: CHAPTER04
    00: 35: 51.691 : en: CHAPTER05
    00: 45: 46.577 : en: CHAPTER06
    00: 54: 04.115 : en: CHAPTER07
    01: 04: 21.440 : en: CHAPTER08
    01: 12: 16.582 : en: CHAPTER09
    01: 20: 32.118 : en: CHAPTER10
    01: 32: 39.011 : en: CHAPTER11
    01: 38: 18.601 : en: CHAPTER12

    Скриншоты для ознакомления



    Все одноименные релизы в Клубе
    Время раздачи: 24/7 (до появления первых 3-5 скачавших)


    Онлайн видео Достать Санту



    Достать Санту/Get Santa (2014) BDRip [H.264/1080p] [MVO] [PR]
    Рейтинг →
     (голосов: 1, оценка 5/5, голосовать можно 1 раз )

    Другие торренты по теме:

  • Достать Санту / Get Santa (2014) HDRip [EN] скачать через торрент бесплатно
  • Достать Санту / Get Santa (2014) BDRip [H.264]


    • Комментарии (0):

      Информация

      Информация

        Посетители, находящиеся в группе Гости, не могут оставлять комментарии в данной новости.

        ↓ Меню




        ↓ Опрос

        Вы добавили сайт в закладки?
        Да
        Нет


        Top 10 за месяц (Фильмы)