.
Авторизация | Регистрация
Хочешь лучшие торренты? Добавь свой email!
Добавить

Торрент скачать бесплатно

  • support: webmaster@btracker.club
» » Год свиньи (2018) WEB-DLRip торрент скачать бесплатно


    Год свиньи (2018) WEB-DLRip торрент скачать бесплатно

    Опубликовал: fregat | Дата: 30-12-2018, 16:12 | .torrent скачали: 2

    Год свиньи (2018) WEB-DLRipПроизводство: Россия/ГудСториМедиа по заказу телеканала ТНТ
    Жанр: Комедия
    Режиссер: Семён Яковлев

    Актеры
    Максим Костромыкин, Юлия Александрова, Алина Алексеева, Александр Яценко, Борис Дергачев, Роза Хайруллина, Дарья Руденок, Сергей Стёпин, Юрий Ицков

    Описание

    Три новеллы, сюжетные линии которых переплетаются в самый последний и самый безумный день в году — 31 декабря. Молодой интерн впервые едет на дежурство в машине скорой помощи, но о реальной помощи пострадавшим в этот Новый год придется забыть. Тихий праздник одинокой кассирши оказывается под угрозой из-за внезапно упавшей с полки бутылки. Брат хочет признаться своему близнецу в измене с его женой, но все идет под откос из-за испорченной гирлянды…

    Возраст: 16+ (зрителям, достигшим 16 лет)
    Дата российской премьеры: 27 декабря 2018
    Продолжительность: 01: 11: 10
    Качество видео: WEB-DLRip
    Перевод: Не требуется (русский)
    Субтитры: Отсутствуют
    Видео: Xvid, 720x400, ~1850 Kbps
    Аудио: AC3, 2 ch, 192 Kbps

    Общее
    Полное имя : C: UsersUserDesktopNNMClubGod.svini.2018.WEB-DLRip.avi
    Формат : AVI
    Формат/Информация : Audio Video Interleave
    Размер файла : 1, 02 Гбайт
    Продолжительность : 1 ч. 11 м.
    Общий поток : 2051 Кбит/сек
    Программа кодирования : VirtualDubMod 1.5.10.3 |www.virtualdub-fr.org|| (build 2550/release)
    Библиотека кодирования : VirtualDubMod build 2550/release
    Видео
    Идентификатор : 0
    Формат : MPEG-4 Visual
    Профиль формата : Advanced Simple@L5
    Настройки формата : BVOP2
    Параметр BVOP формата : 2
    Параметр QPel формата : Нет
    Параметр GMC формата : Без точки перехода
    Параметр матрицы формата : Default (MPEG)
    Режим смешивания : Сжатый битовый поток
    Идентификатор кодека : XVID
    Идентификатор кодека/Подсказка : XviD
    Продолжительность : 1 ч. 11 м.
    Битрейт : 1850 Кбит/сек
    Ширина : 720 пикселей
    Высота : 400 пикселей
    Соотношение сторон : 16: 9
    Частота кадров : 25, 000 кадров/сек
    Цветовое пространство : YUV
    Субдискретизация насыщенности : 4: 2: 0
    Битовая глубина : 8 бит
    Тип развёртки : Прогрессивная
    Метод сжатия : С потерями
    Бит/(Пиксели*Кадры) : 0.257
    Размер потока : 942 Мбайт (90%)
    Библиотека кодирования : XviD 1.2.1 (UTC 2008-12-04)
    Аудио
    Идентификатор : 1
    Формат : AC-3
    Формат/Информация : Audio Coding 3
    Коммерческое название : Dolby Digital
    Идентификатор кодека : 2000
    Продолжительность : 1 ч. 11 м.
    Вид битрейта : Постоянный
    Битрейт : 192 Кбит/сек
    Каналы : 2 канала
    Channel layout : L R
    Частота : 48, 0 КГц
    Частота кадров : 31, 250 кадров/сек (1536 SPF)
    Битовая глубина : 16 бит
    Метод сжатия : С потерями
    Размер потока : 97, 7 Мбайт (9%)
    Выравнивание : Разделение по промежуткам
    Продолжительность промежутка : 40 мс. (1, 00 видеокадр)
    Время предзагрузки промежутка : 500 мс.
    ServiceKind/String : Complete Main

    Скриншоты для ознакомления



    Все одноименные релизы в Клубе
    Время раздачи: 24/7 (до появления первых 3-5 скачавших)


    Онлайн видео Год свиньи (2018) WEB



    Год свиньи (2018) WEB-DLRip
    Рейтинг →
     (голосов: 1, оценка 3/5, голосовать можно 1 раз )

    Другие торренты по теме:

  • Год свиньи (2018) WEB-DLRip [H.264]


    • Комментарии (0):

      Информация

      Информация

        Посетители, находящиеся в группе Гости, не могут оставлять комментарии в данной новости.

        ↓ Меню




        ↓ Опрос

        Вы добавили сайт в закладки?
        Да
        Нет


        Top 10 за месяц (Фильмы)